<?xml version="1.0" standalone="no"?>
<!DOCTYPE svg PUBLIC "-//W3C//DTD SVG 1.1//EN" "http://www.w3.org/Graphics/SVG/1.1/DTD/svg11.dtd" >
<svg xmlns="http://www.w3.org/2000/svg">
<metadata></metadata>
<defs>
<font id="rubrikmedium" horiz-adv-x="1286" >
<font-face units-per-em="2048" ascent="1536" descent="-512" />
<missing-glyph horiz-adv-x="573" />
<glyph unicode="&#xfb01;" horiz-adv-x="1415" d="M61 950q0 42 29.5 70.5t71.5 28.5h61v75q0 168 90 261.5t252 93.5q111 0 193 -23q84 -24 84 -102q0 -38 -27.5 -67.5t-75.5 -29.5q-20 0 -71.5 9.5t-87.5 9.5q-140 0 -140 -162v-65h262q42 0 72.5 -28t30.5 -69t-30.5 -68.5t-72.5 -27.5h-262v-752q0 -47 -31 -79.5 t-77 -32.5q-45 0 -77 32.5t-32 79.5v752h-61q-42 0 -71.5 27.5t-29.5 66.5zM1006 1356q0 52 34.5 86.5t87.5 34.5q51 0 86 -35t35 -86t-35 -88t-86 -37q-53 0 -87.5 36.5t-34.5 88.5zM1020 102v877q0 46 31.5 78.5t76.5 32.5q44 0 76.5 -32.5t32.5 -78.5v-877 q0 -46 -31.5 -78t-77.5 -32q-43 0 -75.5 32.5t-32.5 77.5z" />
<glyph horiz-adv-x="2048" />
<glyph horiz-adv-x="2048" />
<glyph unicode="&#xd;" horiz-adv-x="2048" />
<glyph unicode=" "  horiz-adv-x="573" />
<glyph unicode="&#x09;" horiz-adv-x="573" />
<glyph unicode="&#xa0;" horiz-adv-x="573" />
<glyph unicode="!" horiz-adv-x="464" d="M125 1329q-1 46 30.5 78.5t75.5 32.5q46 0 78 -32.5t31 -78.5l-12 -766q-2 -40 -29.5 -67t-67.5 -27q-39 0 -66.5 27.5t-27.5 66.5zM129 82v102q0 42 29.5 71.5t72.5 29.5q44 0 74.5 -29.5t30.5 -71.5v-102q0 -41 -30.5 -69.5t-74.5 -28.5q-42 0 -72 29t-30 69z" />
<glyph unicode="&#x22;" horiz-adv-x="755" d="M121 1047v294q0 41 28.5 70t71.5 29t72 -29t29 -70v-294q0 -42 -29.5 -71.5t-71.5 -29.5t-71 29.5t-29 71.5zM434 1047v294q0 41 29 70t72 29q44 0 72 -28.5t28 -70.5v-294q0 -42 -28.5 -71.5t-71.5 -29.5q-42 0 -71.5 29.5t-29.5 71.5z" />
<glyph unicode="#" horiz-adv-x="1378" d="M78 494q0 39 30.5 66.5t73.5 27.5h154l88 282h-90q-44 0 -74.5 28t-30.5 69t31 68.5t74 27.5h155l101 305q27 80 98 80q53 0 78.5 -41t7.5 -92l-80 -252h211l101 305q27 80 98 80q53 0 78.5 -41t7.5 -92l-82 -252h88q43 0 73.5 -27.5t30.5 -68.5t-30.5 -69t-73.5 -28 h-154l-90 -282h92q43 0 74 -27.5t31 -66.5q0 -41 -31.5 -69t-73.5 -28h-157l-111 -344q-20 -67 -92 -67q-53 0 -79.5 41.5t-8.5 91.5l90 278h-215l-111 -344q-20 -67 -92 -67q-53 0 -79.5 41.5t-8.5 91.5l90 278h-90q-43 0 -72.5 28t-29.5 69zM537 588h215l88 282h-213z" />
<glyph unicode="$" horiz-adv-x="1249" d="M115 276q0 43 33 74t77 31q39 0 80 -31q64 -49 154 -80.5t182 -31.5q130 0 200 48t70 140q0 80 -70.5 122t-258.5 83q-237 51 -343 139.5t-106 253.5q0 152 108.5 255.5t284.5 125.5v108q0 41 29.5 72t67.5 31q41 0 68.5 -30t27.5 -73v-106q186 -21 293 -111 q39 -29 39 -77t-29.5 -80.5t-73.5 -32.5q-34 0 -82 29q-112 71 -252 71q-136 0 -196 -51.5t-60 -124.5q0 -37 13 -65t33 -46.5t60 -34t76.5 -25t100.5 -23.5q266 -58 380 -150.5t114 -259.5q0 -161 -114.5 -270.5t-301.5 -124.5v-111q0 -43 -27.5 -72.5t-68.5 -29.5 q-38 0 -67.5 30.5t-29.5 71.5v115q-210 27 -354 137q-57 45 -57 104z" />
<glyph unicode="%" horiz-adv-x="1622" d="M72 1036q-3 55 0 107q5 130 96.5 219.5t222.5 89.5q128 0 219 -89.5t97 -219.5q3 -54 0 -107q-8 -130 -98 -219.5t-218 -89.5q-131 0 -222 89.5t-97 219.5zM250 1042q5 -61 43 -100t96 -39q59 0 96.5 39t42.5 100q3 46 0 95q-5 61 -42.5 100t-96.5 39q-57 0 -95 -39 t-44 -100q-3 -48 0 -95zM333 271q-3 44 21 71l781 893q24 31 67 33.5t70 -23.5q31 -26 33.5 -67t-23.5 -70l-780 -893q-25 -31 -66.5 -34.5t-70.5 22.5q-29 24 -32 68zM913 289q-3 54 0 106q5 130 97 221t223 91q129 0 219 -90.5t96 -221.5q3 -53 0 -104q-8 -131 -97 -221 t-218 -90q-131 0 -222.5 90t-97.5 219zM1094 295q5 -60 42.5 -98.5t94.5 -38.5q59 0 96.5 39t42.5 100q6 44 0 94q-5 60 -42.5 99.5t-96.5 39.5q-57 0 -94.5 -39.5t-42.5 -99.5q-6 -46 0 -96z" />
<glyph unicode="&#x26;" horiz-adv-x="1441" d="M94 395q0 125 62.5 212t197.5 145q-176 134 -176 317q0 165 126.5 270t328.5 105q210 0 335.5 -105t125.5 -264q0 -169 -108.5 -263.5t-360.5 -160.5q-176 -42 -243 -97.5t-67 -147.5q0 -98 84 -158t236 -60q164 0 262 87t104 225q10 166 152 166h154q46 0 79 -32t33 -77 q0 -44 -32 -76t-78 -32h-117q-23 -219 -175 -343t-378 -124q-259 0 -402 115t-143 298zM399 1051q0 -74 46 -122.5t120 -88.5q180 35 243.5 80t63.5 137q0 75 -59 128.5t-178 53.5q-115 0 -175.5 -53.5t-60.5 -134.5z" />
<glyph unicode="'" horiz-adv-x="442" d="M121 1047v294q0 41 28.5 70t71.5 29t72 -29t29 -70v-294q0 -42 -29.5 -71.5t-71.5 -29.5t-71 29.5t-29 71.5z" />
<glyph unicode="(" horiz-adv-x="729" d="M137 633q0 267 104 519.5t306 442.5q41 34 85.5 26t69.5 -46q23 -34 17.5 -71.5t-33.5 -65.5q-161 -154 -247.5 -360t-86.5 -445t86.5 -445t247.5 -360q28 -28 33.5 -65.5t-17.5 -71.5q-25 -38 -69.5 -46.5t-85.5 25.5q-202 190 -306 443t-104 520z" />
<glyph unicode=")" horiz-adv-x="729" d="M9.5 -237.5q5.5 37.5 33.5 65.5q160 154 247 360.5t87 444.5t-87 444.5t-247 360.5q-28 28 -33.5 65.5t15.5 71.5q27 38 71 46t86 -26q201 -190 304.5 -442t103.5 -520t-103.5 -520.5t-304.5 -442.5q-42 -34 -86 -25.5t-71 46.5q-21 34 -15.5 71.5z" />
<glyph unicode="*" horiz-adv-x="823" d="M82 972q13 33 51 50l154 70l-154 69q-38 17 -51 50t4 67q16 32 51 40.5t72 -15.5l139 -97l-14 162q-3 43 21 68.5t57 25.5t56.5 -25.5t20.5 -68.5l-14 -162l139 97q37 24 72 15.5t51 -40.5q17 -34 4 -67t-51 -50l-153 -69l153 -70q38 -17 51 -50t-4 -67q-16 -32 -51 -40 t-72 16l-139 96l14 -162q3 -43 -20.5 -68.5t-56.5 -25.5t-57 25.5t-21 68.5l14 162l-139 -96q-37 -24 -72 -16t-51 40q-17 34 -4 67z" />
<glyph unicode="+" d="M123 717q0 44 31 74t75 30h312v312q0 44 30.5 75t73.5 31q44 0 74.5 -31t30.5 -75v-312h307q44 0 75 -30t31 -74q0 -43 -31.5 -74t-74.5 -31h-307v-311q0 -44 -30.5 -75t-74.5 -31t-74 31.5t-30 74.5v311h-312q-44 0 -75 31t-31 74z" />
<glyph unicode="," horiz-adv-x="456" d="M78 -117q0 23 12 47t23.5 59t11.5 85v116q0 42 30 71.5t74 29.5q41 0 72 -30t31 -71v-71q0 -158 -56 -258q-40 -68 -106 -68q-41 0 -66.5 27.5t-25.5 62.5z" />
<glyph unicode="-" horiz-adv-x="681" d="M90 588q0 44 32.5 76t78.5 32h280q46 0 78.5 -31.5t32.5 -76.5q0 -44 -32.5 -76.5t-78.5 -32.5h-280q-46 0 -78.5 31.5t-32.5 77.5z" />
<glyph unicode="." horiz-adv-x="555" d="M125 86v109q0 45 29 75.5t73 30.5q43 0 74 -31t31 -75v-109q0 -44 -30 -74t-75 -30q-42 0 -72 30t-30 74z" />
<glyph unicode="/" horiz-adv-x="749" d="M8 82l537 1348q17 43 58 61.5t81 1.5q41 -15 58.5 -56.5t-1.5 -84.5l-534 -1350q-19 -43 -59.5 -60.5t-81.5 -0.5q-40 15 -57.5 57t-0.5 84z" />
<glyph unicode="0" horiz-adv-x="1443" d="M168 530q-14 194 0 383q17 246 167 394.5t386 148.5t388 -150t167 -393q14 -191 0 -383q-15 -244 -167 -395t-388 -151t-387 150.5t-166 395.5zM387 553q12 -168 100 -264t234 -96q147 0 235.5 96t100.5 264q9 138 0 340q-9 167 -98.5 260.5t-237.5 93.5 q-147 0 -236 -93.5t-98 -260.5q-9 -202 0 -340z" />
<glyph unicode="1" horiz-adv-x="989" d="M100.5 1133q13.5 44 53.5 67l387 217q31 17 59 17q49 0 79 -33.5t30 -75.5v-1223q0 -46 -31.5 -78t-77.5 -32q-44 0 -76 33t-32 77v1039l-234 -131q-39 -22 -82.5 -11t-66.5 52q-22 38 -8.5 82z" />
<glyph unicode="2" horiz-adv-x="1222" d="M113 143q0 135 78 249t245 231q230 161 289 212q88 76 106 145q7 27 7 60q0 37 -13 71t-41 64.5t-78.5 49t-117.5 18.5q-170 0 -275 -129q-33 -37 -59 -45q-42 -13 -83.5 7.5t-53.5 60.5q-16 52 12 96q68 91 184 155t269 64q114 0 206 -32t150.5 -88.5t89.5 -130 t31 -157.5q0 -99 -38 -176.5t-124.5 -158t-255.5 -199.5q-156 -114 -195 -148q-95 -82 -100 -145h635q46 0 78.5 -32t32.5 -76q0 -47 -32.5 -78t-78.5 -31h-723q-64 0 -104.5 38.5t-40.5 104.5z" />
<glyph unicode="3" horiz-adv-x="1226" d="M80 1325q0 46 32 77.5t78 31.5h648q63 0 107 -38t44 -98q0 -23 -10.5 -52t-28.5 -48l-282 -293q174 0 285.5 -107t111.5 -272q0 -176 -112.5 -301t-310 -184t-452.5 -47q-47 1 -76.5 30t-31.5 72q-3 49 32.5 83t90.5 30q184 -13 328.5 19t229.5 108t85 186 q0 96 -65 152.5t-173 56.5q-42 0 -94.5 -11t-66.5 -11q-41 0 -72 28.5t-31 71.5q0 46 37 80l317 328h-510q-46 0 -78 32t-32 76z" />
<glyph unicode="4" horiz-adv-x="1370" d="M109 483q0 40 13 69.5t44 70.5l520 680q48 64 92.5 97.5t98.5 33.5q46 0 79 -18t49 -48t22.5 -58.5t6.5 -58.5v-704h135q44 0 75.5 -29.5t31.5 -75.5q0 -41 -33 -73.5t-74 -32.5h-135v-227q0 -45 -30 -78t-74 -33q-45 0 -76 32.5t-31 78.5v227h-547q-77 0 -122 46 t-45 101zM356 547h467v606z" />
<glyph unicode="5" horiz-adv-x="1257" d="M141 94q-1 52 31 81.5t82 29.5q311 0 488.5 86t177.5 260q0 93 -70.5 151t-183.5 58q-40 0 -82 -6.5t-68.5 -13t-66 -21.5t-49 -19.5t-42.5 -19.5q-81 -32 -128.5 3t-47.5 101v490q0 83 46.5 121.5t117.5 38.5h600q46 0 77.5 -30.5t31.5 -76.5q0 -44 -33 -77t-76 -33 h-555v-320q73 34 141.5 52t161.5 18q203 0 323 -115.5t120 -292.5q0 -183 -112 -312t-308.5 -192t-460.5 -63q-48 0 -81 29t-34 73z" />
<glyph unicode="6" horiz-adv-x="1382" d="M166 748q19 341 194.5 526.5t485.5 185.5q110 0 207 -20q42 -9 67 -37.5t25 -67.5q0 -45 -29 -73.5t-80 -28.5q-9 0 -75 9t-132 9q-167 0 -287.5 -106.5t-146.5 -294.5q168 80 353 80q229 0 362 -124t133 -329q0 -102 -34 -191t-98.5 -158t-167.5 -108.5t-232 -39.5 q-128 0 -227 39t-162 106.5t-101 165.5t-50.5 210.5t-4.5 246.5zM381 637q-9 -219 78.5 -334t257.5 -115q151 0 229 79.5t78 203.5q0 125 -80.5 190.5t-226.5 65.5q-164 0 -336 -90z" />
<glyph unicode="7" horiz-adv-x="1095" d="M61 1327q0 47 32 77t79 30h737q65 0 106.5 -38t41.5 -100q0 -37 -29 -90q-187 -307 -279.5 -470.5t-165 -329.5t-112.5 -330q-11 -41 -41 -62.5t-65 -21.5q-34 0 -54 14q-51 32 -51 92q0 24 6 45q61 221 179.5 457.5t349.5 620.5h-623q-46 0 -78.5 31t-32.5 75z" />
<glyph unicode="8" horiz-adv-x="1409" d="M152 397q0 133 64.5 223t176.5 130q-96 34 -152.5 114t-56.5 203q0 186 136.5 289.5t381.5 103.5q246 0 383.5 -103.5t137.5 -283.5q0 -116 -54.5 -197t-150.5 -124q112 -40 177 -130.5t65 -224.5q0 -188 -144 -302.5t-411 -114.5t-410 114.5t-143 302.5zM371 410 q0 -102 81.5 -162t249.5 -60q171 0 255.5 61.5t84.5 160.5q0 105 -90.5 168t-253.5 63q-161 0 -244 -62.5t-83 -168.5zM401 1061q0 -99 81.5 -155t222.5 -56q142 0 221.5 57t79.5 156q0 190 -301 190q-154 0 -229 -50.5t-75 -141.5z" />
<glyph unicode="9" horiz-adv-x="1374" d="M141 961q0 104 34.5 193.5t99.5 157t166.5 106t228.5 38.5q571 0 540 -727q-9 -204 -65 -345.5t-165.5 -228.5t-264.5 -126t-371 -39q-51 0 -84 28t-33 78q0 43 29.5 77t81.5 34q70 0 122.5 2.5t117 11t112 23.5t97.5 42t84.5 64.5t62.5 93t41 125.5q-167 -73 -334 -73 q-234 0 -367 127.5t-133 337.5zM358 965q0 -126 77.5 -195.5t219.5 -69.5q69 0 133 14t103 29t102 45q6 235 -67.5 345t-257.5 110q-154 0 -232 -75t-78 -203z" />
<glyph unicode=":" horiz-adv-x="552" d="M174 84v109q0 45 29 75.5t73 30.5q43 0 74 -31t31 -75v-109q0 -44 -29.5 -74t-75.5 -30q-42 0 -72 30t-30 74zM174 813v109q0 45 29 75.5t73 30.5q43 0 74 -31t31 -75v-109q0 -45 -29.5 -74.5t-75.5 -29.5q-42 0 -72 30t-30 74z" />
<glyph unicode=";" horiz-adv-x="552" d="M160 -96q3 15 14.5 38.5t21 55.5t9.5 76v116q0 42 29 71.5t73 29.5q41 0 71 -30t30 -71v-100q-1 -46 -9.5 -93.5t-25.5 -95t-49.5 -78t-75.5 -30.5q-34 0 -58 21.5t-30 52.5v37zM205 813v109q0 45 29 75.5t73 30.5q43 0 74 -31t31 -75v-109q0 -45 -30 -74.5t-75 -29.5 q-42 0 -72 30t-30 74z" />
<glyph unicode="&#x3c;" d="M215 717q0 88 94 166l547 442q35 29 77.5 25.5t70.5 -37.5q29 -34 24 -77.5t-39 -70.5l-522 -420q-18 -13 -18 -28t18 -29l522 -420q34 -27 39 -70t-24 -77q-28 -34 -70.5 -37.5t-77.5 25.5l-547 442q-94 78 -94 166z" />
<glyph unicode="=" d="M137 518q0 45 31 75t76 30h798q45 0 76 -30t31 -75q0 -41 -32 -72.5t-75 -31.5h-798q-44 0 -75.5 31t-31.5 73zM137 918q0 44 31 74t76 30h798q45 0 76 -30t31 -74q0 -43 -32 -74t-75 -31h-798q-44 0 -75.5 31t-31.5 74z" />
<glyph unicode="&#x3e;" d="M258.5 198.5q4.5 43.5 38.5 69.5l522 420q19 14 19 29q0 14 -19 28l-522 420q-34 26 -38.5 70t24.5 78q28 34 70 37.5t77 -25.5l547 -442q94 -78 94 -166t-94 -166l-547 -442q-35 -29 -77 -25.5t-70 37.5q-29 34 -24.5 77.5z" />
<glyph unicode="?" horiz-adv-x="1136" d="M102 1182q0 31 31 73q78 98 192.5 151.5t247.5 53.5q195 0 317 -113.5t122 -289.5q0 -97 -26 -173.5t-83.5 -139t-134 -113t-190.5 -103.5q-40 -16 -74 -16q-39 0 -70 28t-31 68q0 71 74 105q177 77 248.5 146.5t71.5 182.5q0 90 -60.5 148.5t-163.5 58.5 q-88 0 -151.5 -31.5t-122.5 -103.5q-43 -43 -88 -43t-77 33.5t-32 77.5zM410 84v102q0 41 29.5 70t72.5 29t73.5 -29t30.5 -70v-102q0 -41 -30.5 -70.5t-73.5 -29.5t-72.5 29.5t-29.5 70.5z" />
<glyph unicode="@" horiz-adv-x="1794" d="M133 344q-13 235 0 412q9 152 72.5 282t165.5 220.5t239 142t289 51.5q155 0 294.5 -52.5t244.5 -146t167 -231.5t62 -299v-315q0 -123 -82 -203t-194 -80q-126 0 -208.5 83.5t-82.5 197.5v210q0 84 -56 142.5t-141 58.5t-140.5 -58.5t-55.5 -142.5v-133q0 -56 23 -97.5 t59.5 -60t81 -23.5t87.5 11q40 10 70.5 -9.5t38.5 -53.5q9 -36 -9 -67t-54 -42q-50 -18 -121 -18q-160 0 -261.5 95t-101.5 259v158q0 156 109.5 261t269.5 105q161 0 273.5 -105.5t113.5 -262.5v-234q0 -41 27 -69.5t67 -28.5q38 0 65.5 28.5t27.5 69.5v306 q0 125 -47 231.5t-126.5 177.5t-183 110.5t-217.5 39.5q-230 0 -388.5 -148t-178.5 -377q-15 -179 2 -381q10 -119 57.5 -214t121 -154.5t166 -91t195.5 -31.5q122 0 242 49q28 12 65.5 3.5t59.5 -38.5q21 -30 12 -70t-45 -63q-127 -74 -329 -74q-108 0 -210.5 25.5t-196 80 t-165.5 132t-118.5 189t-55.5 243.5z" />
<glyph unicode="A" horiz-adv-x="1398" d="M47 106q0 23 6 41l410 1139q30 87 92.5 131.5t144.5 44.5q81 0 144 -44.5t94 -131.5l408 -1139q6 -18 6 -36q0 -44 -30.5 -79.5t-78.5 -35.5q-34 0 -62 19.5t-40 52.5l-135 383h-615l-135 -385q-12 -32 -40.5 -51t-61.5 -19q-49 0 -78 33t-29 77zM461 651h475l-195 555 q-10 31 -41 31q-33 0 -43 -31z" />
<glyph unicode="B" horiz-adv-x="1372" d="M186 168v1104q0 72 45 120t125 48h457q194 0 304 -108t110 -267q0 -236 -187 -315v-2q106 -31 167 -119t61 -215q0 -106 -34 -187t-94.5 -129.5t-139 -73t-173.5 -24.5h-471q-80 0 -125 48t-45 120zM406 209h395q243 0 243 219q0 100 -62 157.5t-167 57.5h-409v-434z M406 838h380q112 0 167 51t55 147q0 97 -57 147t-165 50h-380v-395z" />
<glyph unicode="C" horiz-adv-x="1363" d="M131 555q-8 83 -7.5 165t7.5 163q9 121 56.5 227t124.5 183.5t184.5 122t230.5 44.5q175 0 320.5 -90.5t207.5 -243.5q13 -26 13 -55q0 -42 -34 -72t-73 -30q-65 0 -100 65q-45 100 -133.5 158.5t-200.5 58.5q-160 0 -261.5 -109.5t-115.5 -279.5q-4 -73 -4 -145.5 t4 -145.5q14 -171 115 -277t262 -106q112 0 200.5 58t133.5 157q36 66 100 66q39 0 73 -30t34 -72q0 -26 -13 -56q-62 -153 -207 -243.5t-319 -90.5q-124 0 -232 44.5t-185 122t-124.5 183.5t-56.5 228z" />
<glyph unicode="D" horiz-adv-x="1470" d="M186 168v1106q0 75 43.5 120.5t124.5 45.5h330q157 0 280 -44.5t202.5 -126t123 -190.5t51.5 -243q5 -61 5 -124q0 -49 -3 -100q-7 -107 -35.5 -199t-82 -168.5t-129 -130.5t-180.5 -84t-232 -30h-330q-79 0 -123.5 47.5t-44.5 120.5zM408 217h278q211 0 318 106.5 t118 297.5q4 68 4 122q0 39 -2 70q-23 410 -438 410h-278v-1006z" />
<glyph unicode="E" horiz-adv-x="1284" d="M186 168v1106q0 72 45 119t125 47h686q47 0 80 -30.5t33 -76.5q0 -45 -34 -77.5t-79 -32.5h-634v-396h618q43 0 72.5 -29t29.5 -73q0 -40 -31 -71t-71 -31h-618v-406h641q43 0 76.5 -32t33.5 -76q0 -46 -32 -77.5t-78 -31.5h-693q-80 0 -125 48t-45 120z" />
<glyph unicode="F" horiz-adv-x="1226" d="M186 104v1170q0 72 45 119t125 47h678q48 0 81.5 -31t33.5 -76t-34.5 -77.5t-80.5 -32.5h-626v-426h596q46 0 77 -31.5t31 -77.5q0 -43 -32.5 -74.5t-75.5 -31.5h-596v-478q0 -47 -33.5 -79.5t-79.5 -32.5q-44 0 -76.5 33.5t-32.5 78.5z" />
<glyph unicode="G" horiz-adv-x="1433" d="M131 555q-7 83 -7 165t7 163q9 121 58.5 227t128 183.5t188 122t233.5 44.5q175 0 310 -81t208 -224q17 -27 17 -59q0 -41 -32 -73t-75 -32q-57 0 -92 56q-49 95 -134.5 149.5t-199.5 54.5q-164 0 -268.5 -107.5t-122.5 -281.5q-6 -74 -6 -147.5t6 -145.5 q18 -170 124 -275.5t271 -105.5q158 0 253.5 82t95.5 205v98h-246q-44 0 -75.5 32t-31.5 75q0 44 31 74t76 30h297q77 0 120.5 -46t43.5 -115v-125q0 -107 -42.5 -203t-117 -166t-181 -111t-229.5 -41q-166 0 -301 76.5t-215 208t-92 293.5z" />
<glyph unicode="H" horiz-adv-x="1540" d="M186 104v1229q0 47 33 80t78 33q47 0 79 -33t32 -80v-510h727v510q0 46 33 79.5t77 33.5q47 0 79 -33.5t32 -79.5v-1229q0 -46 -32 -79t-79 -33q-44 0 -77 34t-33 78v508h-727v-508q0 -47 -32 -79.5t-79 -32.5q-45 0 -78 33t-33 79z" />
<glyph unicode="I" horiz-adv-x="589" d="M184 104v1229q0 46 33.5 79.5t77.5 33.5q47 0 79 -33.5t32 -79.5v-1229q0 -46 -32 -79t-79 -33q-45 0 -78 33t-33 79z" />
<glyph unicode="J" horiz-adv-x="1085" d="M66 268q0 43 30 75t72 32q64 0 100 -60q33 -60 86 -93.5t119 -33.5q92 0 154.5 65t62.5 185v895q0 46 33.5 79.5t77.5 33.5q47 0 78.5 -33.5t31.5 -79.5v-897q0 -133 -59.5 -238.5t-159.5 -163t-221 -57.5q-131 0 -236 65.5t-157 172.5q-12 32 -12 53z" />
<glyph unicode="K" horiz-adv-x="1314" d="M186 104v1229q0 46 33.5 79.5t77.5 33.5q47 0 79 -33.5t32 -79.5v-499q45 0 68 7.5t56 39.5l535 528q34 37 84 37q46 0 72 -33q30 -35 30 -76t-30 -71l-549 -531l555 -553q33 -38 33 -80q0 -43 -32.5 -75.5t-76.5 -32.5q-43 0 -78 35l-543 542q-31 33 -54 40t-70 7v-514 q0 -46 -32 -79t-79 -33q-44 0 -77.5 34t-33.5 78z" />
<glyph unicode="L" horiz-adv-x="1148" d="M186 147v1186q0 46 33.5 79.5t77.5 33.5q47 0 79 -33.5t32 -79.5v-1116h620q43 0 77 -32t34 -76q0 -46 -32.5 -77.5t-78.5 -31.5h-694q-70 0 -109 41.5t-39 105.5z" />
<glyph unicode="M" horiz-adv-x="1918" d="M125 104q0 17 2 25l162 1124q14 99 70.5 149t138.5 50t140 -47t79 -141l225 -1012q5 -19 21 -19q13 0 18 19l221 1012q21 94 77.5 141t137.5 47q83 0 140 -50t71 -149l164 -1124q2 -8 2 -25q0 -49 -28.5 -82.5t-82.5 -33.5q-42 0 -74 25.5t-36 64.5l-146 1126 q-3 19 -18 19q-14 0 -18 -17l-234 -1030q-20 -89 -72.5 -134.5t-126.5 -45.5q-73 0 -124.5 45.5t-71.5 134.5l-236 1028q-4 19 -18 19q-15 0 -19 -19l-143 -1126q-4 -39 -36 -64.5t-74 -25.5q-54 0 -82.5 33.5t-28.5 82.5z" />
<glyph unicode="N" horiz-adv-x="1572" d="M186 106v1154q0 78 48.5 131t125.5 53q113 0 172 -98l639 -1067h5q0 5 -4.5 123.5t-4.5 195.5v735q0 47 33 80t78 33q46 0 77 -33t31 -80v-1159q0 -75 -47 -127.5t-122 -52.5q-111 0 -168 94l-646 1081h-6q0 -10 4.5 -134t4.5 -195v-734q0 -46 -32 -79t-79 -33 q-44 0 -76.5 33.5t-32.5 78.5z" />
<glyph unicode="O" horiz-adv-x="1497" d="M131 555q-8 83 -7.5 165t7.5 163q9 120 59.5 226.5t131 183.5t191.5 122t235 45t235 -45t192 -122.5t131.5 -184t59.5 -225.5q8 -82 7.5 -164t-7.5 -164q-9 -121 -59.5 -227.5t-131.5 -184t-192 -122t-235 -44.5q-166 0 -303 76.5t-219.5 208t-94.5 293.5zM350 573 q14 -168 124.5 -276.5t273.5 -108.5t274 108.5t125 276.5q6 74 6 147t-6 146q-14 167 -125.5 276t-273.5 109q-163 0 -273.5 -109t-124.5 -276q-6 -74 -6 -147t6 -146z" />
<glyph unicode="P" horiz-adv-x="1323" d="M186 104v1178q0 69 42.5 113.5t117.5 44.5h412q132 0 240.5 -56t174.5 -166t66 -253q0 -221 -138.5 -350.5t-359.5 -129.5h-335v-381q0 -44 -33.5 -78t-77.5 -34t-76.5 33.5t-32.5 78.5zM406 702h331q145 0 213 69.5t68 191.5q0 121 -68.5 190.5t-204.5 69.5h-339v-521z " />
<glyph unicode="Q" horiz-adv-x="1499" d="M131 555q-7 83 -7 165t7 163q9 120 59.5 226.5t131 183.5t191.5 122t235 45t235 -45t192 -122.5t131.5 -184t59.5 -225.5q8 -82 8 -164t-8 -164q-9 -119 -57.5 -223.5t-128.5 -181.5l176 -218q22 -28 22 -63v-12q-5 -42 -35 -66q-30 -27 -69 -27h-6q-43 3 -72 37 l-188 232q-125 -56 -260 -56q-166 0 -303 76.5t-219.5 208t-94.5 293.5zM350 573q14 -168 124.5 -276.5t273.5 -108.5q57 0 120 17l-166 209q-22 27 -22 63v11q4 42 33 65q31 28 72 28h5q45 -2 74 -38l178 -224q93 104 105 254q6 73 6 146.5t-6 146.5q-14 167 -125.5 276 t-273.5 109q-163 0 -273.5 -109t-124.5 -276q-6 -74 -6 -147t6 -146z" />
<glyph unicode="R" horiz-adv-x="1388" d="M186 104v1176q0 69 42.5 114.5t117.5 45.5h418q98 0 184 -30t151.5 -85.5t103.5 -142.5t38 -195q0 -175 -86 -274.5t-231 -130.5l331 -406q27 -30 27 -73v-7q-2 -48 -33 -76q-34 -30 -75 -30h-6q-44 2 -76 37l-359 442q-28 35 -52 50.5t-63 15.5h-212v-431 q0 -46 -33.5 -80t-77.5 -34t-76.5 34t-32.5 80zM406 743h333q150 0 215.5 62.5t65.5 179.5q0 116 -67.5 179t-202.5 63h-344v-484z" />
<glyph unicode="S" horiz-adv-x="1284" d="M109 223q0 49 32.5 81t79.5 32q39 0 80 -31q78 -56 165 -86.5t206 -30.5q142 0 223.5 59.5t81.5 162.5q0 86 -77.5 131.5t-270.5 83.5q-256 51 -372 146t-116 269q0 190 141 305t365 115q135 0 248.5 -32t177.5 -87q35 -32 35 -86q0 -43 -28.5 -72.5t-71.5 -29.5 q-30 0 -82 25q-131 73 -279 73q-146 0 -215.5 -59t-69.5 -150q0 -85 71 -130t255 -81q274 -52 392 -147t118 -274q0 -191 -144 -312t-392 -121q-293 0 -496 150q-57 42 -57 96z" />
<glyph unicode="T" horiz-adv-x="1247" d="M31 1331q0 47 33 78t79 31h961q47 0 80 -31t33 -78q0 -44 -34 -76t-79 -32h-369v-1119q0 -47 -31.5 -79.5t-78.5 -32.5q-45 0 -78 33t-33 79v1119h-371q-46 0 -79 32t-33 76z" />
<glyph unicode="U" horiz-adv-x="1531" d="M168 598v735q0 45 34 79t79 34t76.5 -33.5t31.5 -79.5v-741q0 -184 105.5 -294t271.5 -110q165 0 270 109.5t105 294.5v741q0 47 32.5 80t77.5 33q47 0 79 -33t32 -80v-735q0 -136 -45 -252.5t-124.5 -197t-189.5 -126t-237 -45.5t-237.5 45.5t-190 126t-125 197 t-45.5 252.5z" />
<glyph unicode="V" horiz-adv-x="1378" d="M45 1331q0 45 30 79t79 34q35 0 63.5 -20t40.5 -54l410 -1147q7 -18 22 -18q16 0 23 18l407 1141q13 37 42.5 58.5t64.5 21.5q49 0 78.5 -34t29.5 -79q0 -17 -8 -41l-418 -1134q-68 -179 -221 -179q-154 0 -219 179l-418 1136q-6 18 -6 39z" />
<glyph unicode="W" horiz-adv-x="1921" d="M74 1333q0 44 28 78.5t78 34.5q39 0 70.5 -23.5t38.5 -58.5l225 -1163q2 -5 6 -5t6 5l265 1079q19 81 69.5 122.5t114.5 41.5q60 0 111.5 -42.5t70.5 -121.5l264 -1079q1 -6 6 -6t7 6l227 1153q9 42 39 67t69 25q51 0 81 -33.5t30 -77.5q0 -12 -4 -28l-270 -1172 q-17 -74 -67 -116t-112 -42q-61 0 -112.5 42t-69.5 114l-266 1071q-1 4 -5 4t-5 -4l-267 -1069q-18 -74 -69 -116t-113 -42q-64 0 -116.5 42.5t-69.5 117.5l-258 1170q-2 8 -2 26z" />
<glyph unicode="X" horiz-adv-x="1337" d="M68 104q0 39 26 72l428 539l-426 545q-25 31 -25 70q1 7 1 15q6 48 43 76q32 24 68 24q8 1 16 -1q45 -6 73 -43l396 -506l399 506q32 43 88 43q47 0 81 -33.5t34 -79.5q0 -42 -25 -74l-432 -542l424 -537q29 -40 29 -76q0 -42 -33.5 -75t-79.5 -33q-60 0 -92 43l-393 498 l-396 -500q-30 -41 -92 -41q-48 0 -80 33t-32 77z" />
<glyph unicode="Y" horiz-adv-x="1337" d="M29 1335q0 44 32.5 77.5t77.5 33.5q53 0 88 -41l441 -553l442 551q34 43 88 43q45 0 78 -34.5t33 -78.5q0 -41 -27 -71l-448 -547q-3 -4 -15 -18t-15 -18t-10 -15.5t-9 -19.5t-4.5 -20t-2.5 -26v-494q0 -47 -31.5 -79.5t-78.5 -32.5q-44 0 -77.5 34t-33.5 78v494 q0 12 -1 21.5t-5 19.5t-5.5 15.5t-9.5 16.5t-9.5 13.5t-13 16.5t-13.5 16l-445 545q-26 33 -26 73z" />
<glyph unicode="Z" horiz-adv-x="1206" d="M90 156q0 64 49 127l699 940h-627q-46 0 -79.5 32t-33.5 76q0 47 33 78t80 31h717q80 0 126 -43.5t46 -110.5q0 -59 -58 -137l-690 -932h674q47 0 80 -32t33 -76q0 -46 -33 -77.5t-80 -31.5h-760q-81 0 -128.5 44t-47.5 112z" />
<glyph unicode="[" horiz-adv-x="763" d="M152 -217v1700q0 62 37 101.5t104 39.5h346q47 0 79 -30t32 -76q0 -45 -33 -77t-78 -32h-270v-1554h270q45 0 78 -31t33 -76t-32.5 -75.5t-78.5 -30.5h-346q-66 0 -103.5 39t-37.5 102z" />
<glyph unicode="\" horiz-adv-x="765" d="M-12 1415q-17 41 1.5 84t59.5 60t82.5 -2t58.5 -62l588 -1470q17 -44 -0.5 -86.5t-60.5 -59.5q-41 -17 -83 2.5t-59 63.5z" />
<glyph unicode="]" horiz-adv-x="763" d="M14 -252q0 45 33 76t78 31h270v1554h-270q-45 0 -78 31.5t-33 75.5q0 46 32 76t79 30h346q67 0 104 -39t37 -102v-1700q0 -63 -37.5 -102t-103.5 -39h-346q-46 0 -78.5 31.5t-32.5 76.5z" />
<glyph unicode="^" horiz-adv-x="1173" d="M207 813l184 475q63 156 195 156q133 0 196 -156l183 -475q14 -38 -3.5 -79t-56.5 -56q-41 -15 -82.5 2t-54.5 57l-158 449q-8 20 -24 20q-15 0 -23 -20l-157 -449q-13 -40 -55 -57t-83 -2q-39 15 -57 56t-4 79z" />
<glyph unicode="_" horiz-adv-x="966" d="M0 -225h967v-185h-967v185z" />
<glyph unicode="`" horiz-adv-x="782" d="M162 1774q0 37 25.5 63.5t60.5 26.5q26 0 45 -13l278 -143q50 -26 50 -78q0 -35 -25.5 -61.5t-60.5 -26.5q-18 0 -46 12l-276 144q-51 25 -51 76z" />
<glyph unicode="a" horiz-adv-x="1146" d="M111 334q0 144 106 242t309 98q117 0 260 -35v68q0 104 -53.5 151t-173.5 47q-95 0 -223 -45q-29 -9 -53 -9q-31 1 -55 15q-42 26 -42 76q0 67 72 100q49 24 137 43t176 19q203 0 313.5 -98t110.5 -299v-533q0 -55 -39 -80q-60 -41 -172.5 -77.5t-253.5 -36.5 q-203 0 -311 98t-108 256zM324 342q0 -83 58 -127.5t167 -44.5q64 0 119.5 13.5t79 25.5t38.5 24v228q-137 35 -247 35q-96 0 -155.5 -41t-59.5 -113z" />
<glyph unicode="b" horiz-adv-x="1228" d="M170 188v1164q0 46 31.5 78t77.5 32q44 0 76 -32t32 -78v-308q135 60 268 60q196 0 310 -109.5t129 -302.5q6 -64 6.5 -136.5t-6.5 -154.5q-15 -192 -138 -306.5t-329 -114.5q-130 0 -244.5 42t-171.5 84q-24 17 -32.5 35t-8.5 47zM387 260q34 -26 104 -49t132 -23 q235 0 256 240q3 44 3 104t-3 136q-8 114 -66 170.5t-172 56.5q-75 0 -145.5 -20t-108.5 -44v-571z" />
<glyph unicode="c" horiz-adv-x="1144" d="M133 401q-4 74 -3.5 146.5t3.5 144.5q12 183 144 297.5t329 114.5q103 0 189.5 -33t137 -82t78 -99t27.5 -91q0 -47 -28.5 -79t-73.5 -32q-63 0 -92 60q-34 74 -95.5 110.5t-138.5 36.5q-115 0 -183 -60t-77 -165q-5 -68 -5 -129t5 -115q9 -107 76.5 -172.5t183.5 -65.5 q77 0 139.5 37t96.5 111q29 59 94 59q44 0 73 -31.5t29 -78.5q0 -41 -28.5 -91.5t-79.5 -99t-138 -81.5t-190 -33q-197 0 -328 120t-145 301z" />
<glyph unicode="d" horiz-adv-x="1232" d="M130 545.5q0 90.5 5 146.5q18 194 130.5 303t307.5 109q137 0 269 -60v308q0 46 32 78t76 32q46 0 77.5 -32t31.5 -78v-1164q0 -30 -8 -48t-31 -34q-58 -42 -172.5 -84t-245.5 -42q-204 0 -326.5 114t-140.5 307q-5 54 -5 144.5zM352 428q18 -240 254 -240q61 0 131 24 t105 50v569q-38 24 -108.5 44t-143.5 20q-116 0 -174 -56.5t-64 -170.5q-5 -68 -5 -128t5 -112z" />
<glyph unicode="e" horiz-adv-x="1169" d="M135 420q-4 58 -4.5 121t4.5 133q15 196 143.5 313t323.5 117q205 0 330 -126.5t125 -332.5v-57q0 -60 -33 -95.5t-98 -35.5h-580v-25q0 -121 73.5 -187.5t196.5 -66.5q101 0 236 49q28 11 52 11q30 0 53 -16q42 -30 42 -79q0 -59 -55 -92q-52 -32 -145 -51.5t-187 -19.5 q-209 0 -337 121.5t-140 318.5zM346 629h475q22 0 25 24q1 12 1 24q0 99 -60 163q-67 71 -185 71q-128 0 -194 -75q-63 -72 -62 -196v-11z" />
<glyph unicode="f" horiz-adv-x="849" d="M61 950q0 42 29.5 70.5t71.5 28.5h61v75q0 168 90 261.5t252 93.5q111 0 193 -23q84 -24 84 -102q0 -38 -27.5 -67.5t-75.5 -29.5q-20 0 -71.5 9.5t-87.5 9.5q-140 0 -140 -162v-65h262q42 0 72.5 -28t30.5 -69t-30.5 -68.5t-72.5 -27.5h-262v-752q0 -47 -31 -79.5 t-77 -32.5q-45 0 -77 32.5t-32 79.5v752h-61q-42 0 -71.5 27.5t-29.5 66.5z" />
<glyph unicode="g" horiz-adv-x="1228" d="M133 420q-5 68 -5 133t5 129q16 191 135.5 306.5t325.5 115.5q130 0 244.5 -40.5t177.5 -84.5q26 -18 34.5 -36t8.5 -48v-825q0 -115 -38.5 -205t-105.5 -146t-155 -85t-191 -29q-181 0 -319 86q-90 57 -90 123q0 39 26.5 66.5t75.5 27.5q40 0 86.5 -25t101.5 -50.5 t117 -25.5q73 0 134.5 27t102 84.5t40.5 136.5v21q-136 -64 -281 -64q-190 0 -304 111.5t-126 296.5zM350 446q16 -235 244 -235q80 0 150.5 24.5t97.5 49.5v546q-9 7 -37 20.5t-86.5 28.5t-116.5 15q-234 0 -252 -238q-4 -48 -4 -100.5t4 -110.5z" />
<glyph unicode="h" horiz-adv-x="1239" d="M170 102v1250q0 46 31.5 78t77.5 32q44 0 76 -32t32 -78v-359q48 46 126.5 78.5t164.5 32.5q189 0 298 -111.5t109 -320.5v-568q0 -47 -31 -79.5t-77 -32.5q-45 0 -77 32.5t-32 79.5v553q0 112 -58.5 175t-162.5 63q-76 0 -146 -36.5t-114 -90.5v-666q0 -46 -30.5 -78 t-75.5 -32t-78 32.5t-33 77.5z" />
<glyph unicode="i" horiz-adv-x="573" d="M164 1356q0 52 35 86.5t88 34.5q51 0 86 -35t35 -86t-35 -88t-86 -37q-53 0 -88 36.5t-35 88.5zM178 102v877q0 46 31.5 78.5t77.5 32.5q44 0 76 -32.5t32 -78.5v-877q0 -46 -31 -78t-77 -32q-43 0 -76 32.5t-33 77.5z" />
<glyph unicode="j" horiz-adv-x="561" d="M-10 -268q4 32 28 59q86 96 117 179.5t31 207.5v801q0 46 31.5 78.5t76.5 32.5q44 0 76.5 -32.5t32.5 -78.5v-772q0 -189 -52 -319.5t-157 -239.5q-32 -35 -82 -35q-38 0 -61 20q-21 16 -33 41q-8 20 -8 43v15zM154 1354q0 53 34 88t86 35q51 0 86 -35.5t35 -87.5 q0 -50 -35.5 -86.5t-85.5 -36.5q-52 0 -86 36t-34 87z" />
<glyph unicode="k" horiz-adv-x="1122" d="M170 102v1248q0 46 31 78t75 32q46 0 78.5 -32t32.5 -78v-695h29q36 0 57.5 9t50.5 38l353 355q33 35 79 37h3q44 0 75 -33q29 -32 29 -74.5t-31 -73.5l-366 -356l366 -377q35 -36 35 -80q0 -40 -31 -75q-30 -33 -75 -33h-3q-47 1 -79 35l-355 372q-30 31 -51 40.5 t-55 9.5h-31v-347q0 -46 -32 -78t-79 -32q-43 0 -74.5 33t-31.5 77z" />
<glyph unicode="l" horiz-adv-x="555" d="M170 102v1248q0 46 31.5 78t77.5 32q44 0 76 -32t32 -78v-1248q0 -46 -30.5 -78t-77.5 -32q-43 0 -76 32.5t-33 77.5z" />
<glyph unicode="m" horiz-adv-x="1775" d="M166 102v801q0 31 10.5 50t36.5 40q65 47 160 79t202 32q207 0 310 -121q71 55 147.5 88t177.5 33q213 0 312.5 -109.5t99.5 -322.5v-570q0 -46 -31.5 -78t-77.5 -32q-44 0 -76 32t-32 78v557q0 122 -50.5 179t-152.5 57q-129 0 -201 -90v-703q0 -46 -30.5 -78t-77.5 -32 q-43 0 -76 32.5t-33 77.5v572q0 221 -200 221q-27 0 -51.5 -2.5t-44 -7.5t-35 -10.5t-28.5 -12t-20.5 -10.5t-14.5 -9l-7 -5v-736q0 -46 -31.5 -78t-77.5 -32q-43 0 -75.5 32.5t-32.5 77.5z" />
<glyph unicode="n" horiz-adv-x="1234" d="M166 102v805q0 32 9.5 50.5t33.5 33.5q56 43 167.5 78t256.5 35q221 0 334.5 -111.5t113.5 -320.5v-570q0 -46 -30.5 -78t-77.5 -32q-43 0 -76 32.5t-33 77.5v560q0 116 -67 174.5t-170 58.5q-71 0 -138.5 -17t-105.5 -40v-736q0 -46 -31.5 -78t-77.5 -32 q-43 0 -75.5 32.5t-32.5 77.5z" />
<glyph unicode="o" horiz-adv-x="1214" d="M133 399q-4 74 -3.5 147.5t3.5 145.5q13 182 146 297t327 115q197 0 329 -114.5t144 -297.5q6 -72 5.5 -145.5t-5.5 -147.5q-12 -181 -145 -300t-328 -119q-193 0 -326 119t-147 300zM350 426q9 -108 78 -173t178 -65q110 0 179.5 65t78.5 173q2 39 2 98.5t-2 139.5 q-6 103 -75 167t-183 64q-112 0 -180 -64t-76 -167q-4 -72 -4 -132t4 -106z" />
<glyph unicode="p" horiz-adv-x="1226" d="M166 -293v1202q0 40 33 62q63 46 180 89.5t252 43.5q202 0 322.5 -113.5t138.5 -306.5q4 -54 4 -143.5t-4 -145.5q-18 -195 -135 -305t-318 -110q-117 0 -256 61v-334q0 -45 -32.5 -77.5t-76.5 -32.5q-46 0 -77 32t-31 78zM383 256q35 -24 103.5 -46t136.5 -22 q235 0 251 230q4 55 4 114.5t-4 122.5q-18 240 -247 240q-63 0 -136.5 -24.5t-107.5 -51.5v-563z" />
<glyph unicode="q" horiz-adv-x="1232" d="M130 539q0 89 5 145q15 192 137 306t324 114q135 0 253 -42.5t179 -86.5q31 -21 31 -66v-1202q0 -46 -31 -78t-76 -32q-44 0 -76 32t-32 78v334q-143 -61 -262 -61q-199 0 -314 109.5t-133 303.5q-5 57 -5 146zM352 420q12 -232 244 -232q71 0 140.5 20.5t107.5 43.5v567 q-34 27 -107 51.5t-137 24.5q-230 0 -248 -236q-5 -53 -5 -113t5 -126z" />
<glyph unicode="r" horiz-adv-x="796" d="M156 100v666q0 157 89.5 247.5t254.5 90.5q104 0 186 -23q84 -25 84 -102q0 -39 -26 -70.5t-76 -31.5q-13 -1 -64 9q-46 9 -82 9h-8q-73 -2 -107 -41t-34 -123v-631q0 -45 -32.5 -76.5t-78.5 -31.5q-43 0 -74.5 31.5t-31.5 76.5z" />
<glyph unicode="s" horiz-adv-x="1011" d="M100 164q-1 8 -1 16q0 32 18 56q25 34 63 40q7 1 14 1q31 0 66 -21q56 -40 115 -60t149 -20q91 0 140 37t49 98q0 45 -32.5 74t-109.5 47q-97 22 -147 35q-297 74 -297 307q0 151 113.5 240.5t289.5 89.5q88 0 172.5 -26.5t137.5 -69.5q33 -27 33 -74q0 -42 -23 -66 q-24 -29 -64 -32h-9q-34 0 -68 18q-86 51 -189 51q-184 0 -184 -127q0 -42 31.5 -68t109.5 -46l160 -37q289 -71 289 -310q0 -153 -115.5 -245t-296.5 -92q-238 0 -377 116q-31 26 -37 68z" />
<glyph unicode="t" horiz-adv-x="854" d="M158 348v856q0 46 31.5 78.5t76.5 32.5q44 0 76.5 -32.5t32.5 -78.5v-155h282q42 0 72.5 -28t30.5 -69t-30.5 -68.5t-72.5 -27.5h-282v-510q0 -162 145 -162q19 0 40.5 3.5t35.5 7t38.5 11t33.5 9.5q19 4 35 4q35 -1 61 -21q36 -30 37 -79q0 -69 -74 -101 q-86 -38 -229 -38q-168 0 -254 101.5t-86 266.5z" />
<glyph unicode="u" horiz-adv-x="1234" d="M154 416v559q0 51 28.5 83t77.5 32q46 0 78.5 -33t32.5 -82v-557q0 -106 63.5 -168t173.5 -62q135 0 244 68v721q0 47 31.5 80t77.5 33q44 0 76 -33t32 -80v-793q0 -56 -41 -82q-65 -46 -172.5 -84t-249.5 -38q-209 0 -330.5 114.5t-121.5 321.5z" />
<glyph unicode="v" horiz-adv-x="1073" d="M49 934q-9 25 -9 48q0 34 20 62q34 48 94 48q35 0 63.5 -22.5t40.5 -59.5l268 -768q3 -8 10.5 -8t10.5 8l264 762q14 38 43 60.5t66 22.5q61 0 94 -49q19 -29 19 -61q0 -23 -9 -47l-293 -783q-60 -159 -196 -159q-65 0 -114.5 40.5t-78.5 116.5z" />
<glyph unicode="w" horiz-adv-x="1660" d="M63 944q-5 20 -5 39q0 36 20 65q30 44 86 44q38 0 67.5 -23t40.5 -68l189 -770q3 -8 10 -8t10 8l176 707q19 73 65.5 113.5t108.5 40.5q63 0 109.5 -40.5t65.5 -113.5l176 -707q3 -8 10 -8t10 8l189 768q9 40 38.5 66.5t67.5 26.5q59 0 89 -44q19 -28 19 -62 q0 -20 -6 -42l-217 -807q-42 -157 -184 -157q-145 0 -184 157l-172 680q-3 8 -11 8q-10 0 -10 -8l-176 -678q-42 -159 -182 -159q-65 0 -114 39t-70 116z" />
<glyph unicode="x" horiz-adv-x="1126" d="M90 96q0 42 27 72l307 379l-291 362q-29 37 -29 74q0 41 33.5 72.5t77.5 31.5q54 0 82 -38l264 -336l266 334q32 40 88 40q44 0 75.5 -31t31.5 -73q0 -39 -29 -76l-288 -360l303 -379q28 -36 28 -76q0 -39 -32 -70.5t-74 -31.5q-56 0 -86 41l-281 350l-280 -352 q-31 -39 -86 -39q-45 0 -76 32t-31 74z" />
<glyph unicode="y" horiz-adv-x="1073" d="M51 932q-11 25 -11 48q0 32 20 60q34 50 90 50q82 0 110 -82l277 -662q3 -6 8 -6q7 0 10 6l254 658q14 39 43 62.5t68 23.5q61 0 94 -50q19 -28 19 -59q0 -24 -11 -49l-385 -916q-58 -139 -134.5 -240.5t-144.5 -144.5q-48 -30 -92 -30q-42 0 -72 28.5t-30 73.5 q0 59 45 88q61 37 118.5 109t96.5 174z" />
<glyph unicode="z" horiz-adv-x="1036" d="M96 139q0 58 43 111l555 618h-463q-44 0 -75 28t-31 71q0 42 31.5 71t74.5 29h562q60 0 98 -30.5t49 -80.5q4 -18 4 -35q0 -60 -49 -116l-543 -604h486q45 0 76.5 -28.5t31.5 -72.5q0 -42 -31.5 -71t-76.5 -29h-584q-70 0 -114 39.5t-44 99.5z" />
<glyph unicode="{" horiz-adv-x="829" d="M68 645q0 39 41 72q62 49 85 101.5t23 131.5v467q0 85 60 145t145 60h283q46 0 78 -30.5t32 -75.5t-32.5 -76t-77.5 -31h-209q-26 0 -44 -17.5t-18 -43.5v-398q0 -118 -41 -192.5t-96 -112.5q137 -99 137 -305v-426q0 -25 17 -43t43 -18h211q45 0 77.5 -31t32.5 -76 t-32 -75.5t-78 -30.5h-256q-94 0 -163 68t-69 163v467q0 79 -23 131.5t-85 101.5q-41 33 -41 74z" />
<glyph unicode="|" horiz-adv-x="622" d="M199 -176v1773q0 47 31 80t77 33q45 0 77 -33t32 -80v-1773q0 -46 -31.5 -78.5t-77.5 -32.5q-44 0 -76 33t-32 78z" />
<glyph unicode="}" horiz-adv-x="829" d="M14 -254q0 45 33 76t78 31h211q26 0 42.5 18t16.5 43v426q0 206 137 305q-55 38 -96 112.5t-41 192.5v398q0 26 -17.5 43.5t-43.5 17.5h-209q-45 0 -78 31t-33 76t32.5 75.5t78.5 30.5h283q85 0 144.5 -60t59.5 -145v-467q0 -78 23.5 -131t85.5 -102q41 -33 41 -72 q0 -41 -41 -74q-62 -49 -85.5 -102t-23.5 -131v-467q0 -95 -68.5 -163t-162.5 -68h-256q-46 0 -78.5 30.5t-32.5 75.5z" />
<glyph unicode="~" horiz-adv-x="1316" d="M117 721q0 78 86 115q160 67 254 67q65 0 134 -26t137.5 -52t131.5 -26q72 0 164 47q74 37 124 1t50 -91q0 -40 -23.5 -69.5t-60.5 -43.5q-52 -22 -85.5 -34.5t-82 -24t-90.5 -11.5q-52 0 -107.5 16.5t-96 36t-95 36t-104.5 16.5q-66 0 -158 -47q-55 -27 -94.5 -15 t-61.5 42t-22 63z" />
<glyph unicode="&#xa1;" horiz-adv-x="464" d="M125 106l12 766q0 39 27.5 67t66.5 28q40 0 67.5 -27.5t29.5 -67.5l12 -766q1 -46 -31 -78t-78 -32q-45 0 -76 32.5t-30 77.5zM129 1251v103q0 40 30 69t72 29q44 0 74.5 -28.5t30.5 -69.5v-103q0 -41 -30.5 -70.5t-74.5 -29.5q-43 0 -72.5 29.5t-29.5 70.5z" />
<glyph unicode="&#xa2;" horiz-adv-x="1007" d="M160 616q-6 100 0 199q9 135 91.5 234.5t211.5 130.5v170q0 41 29 71.5t67 30.5q41 0 68.5 -29.5t27.5 -72.5v-170q90 -20 157.5 -75t98.5 -130q11 -27 11 -49q0 -38 -32 -66.5t-69 -28.5q-32 0 -56 18t-34 42q-25 54 -72 85.5t-104 31.5q-89 0 -135.5 -52.5 t-54.5 -142.5q-7 -99 0 -195q20 -190 190 -190q57 0 104 30.5t72 84.5q10 24 34 41.5t56 17.5q37 0 68 -28t31 -66q0 -17 -9 -41q-77 -173 -256 -217v-166q0 -43 -27.5 -72.5t-68.5 -29.5q-38 0 -67 31t-29 71v170q-129 29 -211.5 127.5t-91.5 234.5z" />
<glyph unicode="&#xa3;" horiz-adv-x="1183" d="M23 678q0 44 32 73t80 29h84q-3 15 -10.5 49.5t-11 52.5t-8.5 45.5t-7 50t-2 44.5q0 89 29 166t84 136.5t142.5 93.5t197.5 34q243 0 403 -160q45 -45 45 -90q0 -47 -30.5 -76.5t-75.5 -29.5q-41 0 -88 37q-61 56 -118 82t-140 26q-62 0 -109 -19.5t-72.5 -52t-38 -69 t-12.5 -74.5q0 -31 6 -67.5t19 -94t18 -84.5h269q47 0 78.5 -28.5t31.5 -73.5t-32.5 -76t-77.5 -31h-246q7 -76 -15 -171.5t-67 -182.5h633q43 0 76.5 -33t33.5 -78q0 -44 -32 -75t-78 -31h-731q-70 0 -110 37.5t-40 97.5q0 25 7.5 47t29.5 68q89 178 76 321h-111 q-47 0 -79.5 30.5t-32.5 76.5z" />
<glyph unicode="&#xa4;" horiz-adv-x="1269" d="M97 280.5q1 40.5 32 71.5l162 164q-28 64 -31 135q-3 65 0 129q3 73 31 140l-162 163q-31 31 -32 73t28 71q29 30 71.5 29t71.5 -33l148 -148q100 74 219 74q123 0 219 -74l147 148q29 32 72 33t72 -29q29 -29 28 -71t-32 -73l-162 -163q28 -67 31 -140q3 -64 0 -129 q0 -71 -31 -135l162 -164q31 -31 32 -71.5t-28 -69.5q-30 -30 -71.5 -29t-72.5 31l-145 154q-104 -80 -221 -80q-113 0 -221 80l-146 -154q-31 -30 -72 -31t-71 29q-29 29 -28 69.5zM444 649q4 -78 58.5 -129t132.5 -51t131.5 51t56.5 129q3 61 0 131q-5 79 -58 132t-130 53 t-131 -53t-60 -132q-3 -64 0 -131z" />
<glyph unicode="&#xa5;" horiz-adv-x="1337" d="M28.5 1344.5q4.5 45.5 39.5 74.5q35 30 82.5 26t76.5 -40l441 -553l442 551q29 37 76 42t82 -24q36 -30 40 -76t-26 -83l-448 -547q-4 -5 -16.5 -20.5t-16.5 -20.5t-11 -17t-9 -22.5t-3 -24.5h201q45 0 76.5 -28.5t31.5 -73.5q0 -42 -31.5 -71t-76.5 -29h-201v-304 q0 -47 -31.5 -79.5t-78.5 -32.5q-44 0 -76.5 33.5t-32.5 78.5v304h-201q-46 0 -77 28t-31 72q0 45 31 73.5t77 28.5h201q-1 11 -4 22t-5 17.5t-9.5 17.5t-10 14.5t-14 18t-14.5 17.5l-447 545q-31 37 -26.5 82.5z" />
<glyph unicode="&#xa6;" horiz-adv-x="622" d="M199 -176v700q0 47 31 80t77 33q45 0 77 -33t32 -80v-700q0 -46 -31.5 -78.5t-77.5 -32.5q-44 0 -76 33t-32 78zM199 897v700q0 47 31 80t77 33q45 0 77 -33t32 -80v-700q0 -46 -31.5 -78.5t-77.5 -32.5q-44 0 -76 33t-32 78z" />
<glyph unicode="&#xa7;" horiz-adv-x="1175" d="M141 0q0 45 32.5 74.5t76.5 29.5q32 0 61 -18q65 -39 140 -60.5t137 -21.5q111 0 166 49.5t55 118.5q0 26 -7 47t-15.5 36.5t-30 29.5t-36.5 22.5t-50 19t-56 16t-67 17.5q-204 53 -287.5 125.5t-83.5 184.5q0 101 76 180q-84 87 -84 223q0 163 123 271t313 108 q120 0 220.5 -36t158.5 -81q47 -38 47 -94q0 -44 -29.5 -75t-74.5 -31q-32 0 -82 30q-118 74 -240 74q-111 0 -163 -49.5t-52 -118.5q0 -36 12 -63.5t29 -44.5t53 -32.5t67 -24.5t87 -24l12 -3q204 -53 287.5 -124.5t83.5 -183.5q0 -97 -76 -180q84 -87 84 -223 q0 -163 -122 -271t-314 -108q-123 0 -237.5 38t-172.5 85q-41 30 -41 88zM367 680q0 -48 54.5 -81t196.5 -64q96 -25 181 -58l4 6q31 39 31 76q0 47 -55 80t-197 66q-108 24 -181 57l-4 -6q-30 -33 -30 -76z" />
<glyph unicode="&#xa8;" horiz-adv-x="782" d="M109 1667q0 46 31.5 78.5t78.5 32.5q46 0 78.5 -32.5t32.5 -78.5q0 -47 -32.5 -80t-78.5 -33q-47 0 -78.5 32.5t-31.5 80.5zM453 1667q0 46 32 78.5t78 32.5q47 0 79 -32.5t32 -78.5q0 -47 -32 -80t-79 -33q-46 0 -78 33t-32 80z" />
<glyph unicode="&#xa9;" horiz-adv-x="1632" d="M180 621q-3 98 0 196q7 181 93 327t229 227t313 81q171 0 314 -81t228.5 -227t92.5 -327q3 -98 0 -196q-7 -180 -92.5 -325.5t-228.5 -226.5t-314 -81q-170 0 -313 81t-229 226.5t-93 325.5zM338 610q13 -211 147.5 -341t329.5 -130q196 0 331.5 130t147.5 341 q8 109 0 217q-13 212 -148 341.5t-331 129.5q-195 0 -329.5 -129.5t-147.5 -341.5q-8 -109 0 -217zM475 621q-8 78 0 200q12 140 108.5 233t235.5 93q105 0 187.5 -48.5t115.5 -125.5q13 -32 13 -51q0 -34 -21 -54t-51 -20q-48 0 -68 47q-25 51 -70.5 78.5t-105.5 27.5 q-79 0 -130.5 -53.5t-57.5 -140.5q-4 -59 0 -174q6 -86 57.5 -140.5t130.5 -54.5q125 0 176 105q20 47 68 47q30 0 51 -20t21 -54q0 -18 -13 -51q-33 -77 -115.5 -125.5t-187.5 -48.5q-139 0 -234.5 93.5t-109.5 236.5z" />
<glyph unicode="&#xaa;" horiz-adv-x="983" d="M92 895q-7 106 0 215q9 158 105.5 250t251.5 92q99 0 189.5 -29.5t133.5 -60.5q22 -16 31.5 -32.5t9.5 -45.5v-360q0 -76 16.5 -120.5t55.5 -96.5q26 -43 16 -81t-41 -57q-32 -18 -67 -12t-58 35q-31 40 -43 67q-54 -52 -119 -78t-124 -26q-160 0 -254 93t-103 247z M276 901q5 -74 48 -117t127 -43q46 0 99 23.5t85 58.5q-8 61 -8 133v269q-26 15 -76.5 28t-99.5 13q-83 0 -126.5 -44t-48.5 -122q-11 -96 0 -199z" />
<glyph unicode="&#xab;" horiz-adv-x="1204" d="M90 725q0 95 94 168l250 190q35 26 75 23t66 -35q28 -32 24 -74t-36 -67l-231 -176q-19 -14 -19 -29t19 -29l231 -176q32 -25 36 -67t-24 -74q-26 -32 -66 -35t-75 23l-250 192q-94 73 -94 166zM561 725q0 95 96 168l248 190q37 26 77.5 23t66.5 -35q27 -32 22.5 -74.5 t-37.5 -66.5l-231 -176q-19 -14 -19 -29t19 -29l231 -176q33 -24 37.5 -66.5t-22.5 -74.5q-26 -32 -66.5 -35t-77.5 23l-248 192q-52 39 -74 78.5t-22 87.5z" />
<glyph unicode="&#xac;" d="M123 717q0 44 31 74t75 30h783q72 0 111.5 -42t39.5 -107v-373q0 -44 -30 -75t-74 -31q-42 0 -73.5 32t-31.5 74v313h-725q-44 0 -75 31t-31 74z" />
<glyph unicode="&#xad;" horiz-adv-x="681" d="M90 588q0 44 32.5 76t78.5 32h280q46 0 78.5 -31.5t32.5 -76.5q0 -44 -32.5 -76.5t-78.5 -32.5h-280q-46 0 -78.5 31.5t-32.5 77.5z" />
<glyph unicode="&#xae;" horiz-adv-x="1267" d="M145 819q-3 77 0 154q9 205 148 343t338 138t337.5 -138t147.5 -343q3 -77 0 -154q-9 -205 -147.5 -343t-337.5 -138t-338 138t-148 343zM268 811q12 -162 112 -258t251 -96t250 95.5t112 258.5q7 87 0 170q-13 164 -112 259t-250 95t-251 -95t-112 -259q-7 -83 0 -170z M430 676v432q0 30 18.5 50t51.5 20h162q80 0 133 -48t53 -131q0 -58 -26 -99t-72 -58l100 -129q14 -21 14 -41q0 -24 -17 -41t-44 -17q-24 0 -45 25l-123 166q-11 16 -33 16h-57v-145q0 -27 -16.5 -43.5t-43.5 -16.5q-22 0 -38.5 17t-16.5 43zM543 922h100q88 0 88 75 q0 36 -21 57t-63 21h-104v-153z" />
<glyph unicode="&#xaf;" horiz-adv-x="782" d="M139 1655q0 38 26 63t64 25h330q38 0 64 -25t26 -63t-26 -64t-64 -26h-330q-38 0 -64 26t-26 64z" />
<glyph unicode="&#xb0;" horiz-adv-x="708" d="M86 1202q0 111 79 191t189 80t189.5 -80.5t79.5 -190.5q0 -109 -79.5 -188.5t-189.5 -79.5t-189 79.5t-79 188.5zM225 1202q0 -54 37.5 -90.5t91.5 -36.5t91.5 36.5t37.5 90.5t-37.5 91.5t-91.5 37.5t-91.5 -37.5t-37.5 -91.5z" />
<glyph unicode="&#xb1;" d="M123 104q0 44 31 74.5t75 30.5h828q44 0 75 -30.5t31 -74.5q0 -43 -31.5 -73.5t-74.5 -30.5h-828q-44 0 -75 30.5t-31 73.5zM123 774q0 43 31 74t75 31h312v311q0 43 30.5 74.5t73.5 31.5q44 0 74.5 -31.5t30.5 -74.5v-311h307q44 0 75 -31t31 -74t-31.5 -73.5 t-74.5 -30.5h-307v-314q0 -44 -30.5 -75t-74.5 -31q-42 0 -73 32t-31 74v314h-312q-44 0 -75 30.5t-31 73.5z" />
<glyph unicode="&#xb2;" horiz-adv-x="923" d="M121 1249q0 28 22 60q42 59 119 101t176 42q153 0 237.5 -78t84.5 -190q0 -106 -53 -175.5t-197 -166.5l-27 -18l-27 -18t-24.5 -16.5t-24 -17.5t-20.5 -16t-18.5 -16.5t-14 -16t-11 -16t-5.5 -15.5h344q44 0 73 -26t29 -68t-29 -68t-73 -26h-426q-61 0 -94 34t-33 91 q0 157 199 301q17 13 70.5 47.5t82.5 56t56.5 59t27.5 74.5q0 42 -31.5 73.5t-93.5 31.5q-84 0 -147 -74l-6 -6l-8 -8t-8.5 -8t-11 -8t-12.5 -6.5t-14.5 -5t-15.5 -1.5q-40 0 -68 26t-28 68z" />
<glyph unicode="&#xb3;" horiz-adv-x="876" d="M111 575q0 42 27 69.5t69 27.5q8 0 36 -3t46 -3q130 0 205 45.5t75 122.5q0 51 -34 79.5t-93 28.5q-19 0 -48.5 -5t-39.5 -5q-31 0 -54.5 20.5t-23.5 51.5q0 32 27 59l162 166h-256q-41 0 -67.5 28.5t-26.5 69.5q0 40 26.5 67t67.5 27h383q49 0 83 -29t34 -75 q0 -49 -50 -103l-114 -120q102 -20 159.5 -90t57.5 -168q0 -163 -131 -259t-359 -96q-47 0 -65 2q-40 2 -68 28t-28 64z" />
<glyph unicode="&#xb4;" horiz-adv-x="782" d="M162 1630q0 53 51 78l276 143q23 13 46 13q35 0 60.5 -26.5t25.5 -63.5q0 -50 -50 -76l-278 -144q-28 -12 -45 -12q-35 0 -60.5 26.5t-25.5 61.5z" />
<glyph unicode="&#xb6;" horiz-adv-x="1501" d="M160 971q0 143 66.5 251.5t175.5 163t241 54.5h508q77 4 121.5 -42t44.5 -120v-1561q0 -44 -32.5 -77t-76.5 -33t-76 33t-32 77v1506h-146v-1506q0 -46 -31 -78t-77 -32q-44 0 -76.5 32.5t-32.5 77.5v785h-84q-219 0 -356 125t-137 344zM381 969q0 -125 74 -190.5 t215 -65.5h67v510h-73q-135 0 -209 -65t-74 -189z" />
<glyph unicode="&#xb7;" horiz-adv-x="555" d="M174 668v108q0 45 29 76t73 31q43 0 74 -31.5t31 -75.5v-108q0 -45 -30 -75t-75 -30q-42 0 -72 30.5t-30 74.5z" />
<glyph unicode="&#xb8;" horiz-adv-x="782" d="M225 -479q0 51 58 73q92 36 121.5 61.5t29.5 59.5q0 20 -16.5 38t-44.5 18q-15 0 -34 -4.5t-32 -4.5q-37 0 -58.5 32.5t-6.5 68.5l57 155q22 60 72 60q33 0 51 -20t18 -50q0 -12 -6 -24l-26 -70q89 -6 140.5 -60t51.5 -135q0 -95 -71.5 -162.5t-188.5 -107.5 q-40 -14 -77.5 4t-37.5 68z" />
<glyph unicode="&#xb9;" horiz-adv-x="700" d="M71 1218q13 40 46 58l254 143q24 15 51 15q42 0 70 -29.5t28 -71.5v-737q0 -42 -26 -70t-68 -28t-70 29.5t-28 68.5v573l-119 -59q-37 -19 -73 -9.5t-58 44.5q-20 33 -7 73z" />
<glyph unicode="&#xba;" horiz-adv-x="942" d="M98 909q-6 95 0 189q12 152 115.5 253t257.5 101t257.5 -101t115.5 -253q6 -93 0 -189q-12 -156 -115 -256t-258 -100t-258 100t-115 256zM291 909q7 -77 56.5 -122.5t123.5 -45.5t124 45.5t56 122.5q6 95 0 187q-6 75 -56 121.5t-124 46.5t-124 -46.5t-56 -121.5 q-6 -92 0 -187z" />
<glyph unicode="&#xbb;" horiz-adv-x="1204" d="M134 453q4 42 36 67l231 176q19 14 19 29t-19 29l-231 176q-32 25 -36 67t24 74q26 32 66 35t75 -23l250 -190q94 -73 94 -168q0 -93 -94 -166l-250 -192q-35 -26 -75 -23t-66 35q-28 32 -24 74zM605 453q4 42 38 67l231 176q19 14 19 29t-19 29l-231 176q-34 25 -38 67 t24 74q26 32 66 35t75 -23l250 -190q96 -73 96 -168q0 -48 -22 -87.5t-74 -78.5l-250 -192q-35 -26 -75 -23t-66 35q-28 32 -24 74z" />
<glyph unicode="&#xbc;" horiz-adv-x="2019" d="M71 1218q13 40 46 58l254 143q24 15 51 15q42 0 70 -29.5t28 -71.5v-737q0 -42 -27 -70t-69 -28t-71 29.5t-29 68.5v573l-115 -59q-37 -19 -73 -9.5t-58 44.5q-20 33 -7 73zM510 70l543 1366q18 42 58.5 57t76.5 -2q36 -14 51 -51.5t-2 -77.5l-543 -1366 q-16 -37 -51.5 -53.5t-79.5 0.5q-35 12 -51.5 51t-1.5 76zM1071 317q0 56 55 115l392 442q52 62 112 62q59 0 96 -38t37 -95v-434h70q36 0 62 -25t26 -61q0 -38 -25 -63t-63 -25h-70v-107q0 -34 -26 -61t-62 -27q-38 0 -63 25t-25 63v105h-383q-58 0 -95.5 34t-37.5 90z M1294 369h293v329z" />
<glyph unicode="&#xbd;" horiz-adv-x="1988" d="M71 1218q13 40 46 58l254 143q24 15 51 15q42 0 70 -29.5t28 -71.5v-737q0 -42 -26 -70t-68 -28t-70 29.5t-28 68.5v573l-119 -59q-37 -19 -73 -9.5t-58 44.5q-20 33 -7 73zM512 70l543 1366q18 42 58.5 57t76.5 -2q36 -14 51 -51.5t-2 -77.5l-543 -1366 q-16 -37 -51.5 -53.5t-79.5 0.5q-35 12 -51.5 51t-1.5 76zM1186 745q0 28 22 60q42 59 119 101t176 42q153 0 237.5 -78t84.5 -190q0 -106 -53 -175.5t-197 -166.5l-27 -18l-27 -18t-24.5 -16.5t-24 -17.5t-20.5 -16t-18.5 -16.5t-14 -16t-11 -16t-5.5 -15.5h344 q44 0 73 -26t29 -68t-29 -68t-73 -26h-426q-61 0 -94 34t-33 91q0 157 199 301q18 13 56.5 38t65 43.5t55.5 44t44.5 54t15.5 58.5q0 42 -31.5 73t-93.5 31q-84 0 -147 -74l-6 -6l-8 -8t-8.5 -8t-11 -8t-12.5 -6.5t-14.5 -5t-15.5 -1.5q-40 0 -68 26t-28 68z" />
<glyph unicode="&#xbe;" horiz-adv-x="2193" d="M111 575q0 42 27 69.5t69 27.5q8 0 36 -3t46 -3q130 0 205 45.5t75 122.5q0 51 -34 79.5t-93 28.5q-19 0 -48.5 -5t-39.5 -5q-31 0 -54.5 20.5t-23.5 51.5q0 32 27 59l162 166h-256q-41 0 -67.5 28.5t-26.5 69.5q0 40 26.5 67t67.5 27h383q49 0 83 -29t34 -75 q0 -49 -50 -103l-114 -120q102 -20 159.5 -90t57.5 -168q0 -163 -131 -259t-359 -96q-33 0 -56.5 3t-50 11.5t-40.5 28.5t-14 51zM707 70l542 1366q18 42 58.5 57t76.5 -2q36 -14 51.5 -51.5t-1.5 -77.5l-543 -1366q-16 -37 -51.5 -53.5t-79.5 0.5q-35 12 -51.5 51t-1.5 76z M1266 317q0 30 15.5 58t68.5 88l309 352l43.5 46.5t41 36t50.5 28.5q24 9 53 6q111 -7 111 -170v-393h72q35 0 61.5 -25t26.5 -61q0 -38 -25 -63t-63 -25h-72v-74q0 -121 -88 -121q-86 0 -86 121v72h-342q-176 0 -176 124zM1489 369h293v329z" />
<glyph unicode="&#xbf;" horiz-adv-x="1136" d="M111 381q0 97 26 173.5t83.5 139t134 112.5t190.5 103q43 17 73 17q39 0 70 -28.5t31 -68.5q0 -70 -74 -104q-176 -77 -247.5 -147t-71.5 -183q0 -90 60 -148.5t163 -58.5q88 0 151 32t123 104q43 43 88 43t77 -33.5t32 -77.5q0 -32 -31 -74q-78 -98 -192.5 -151.5 t-247.5 -53.5q-195 0 -316.5 114t-121.5 290zM506 1251v103q0 41 30.5 70.5t73.5 29.5t73 -29.5t30 -70.5v-103q0 -41 -30 -69.5t-73 -28.5t-73.5 28.5t-30.5 69.5z" />
<glyph unicode="&#xc0;" horiz-adv-x="1398" d="M47 106q0 23 6 41l410 1139q30 87 92.5 131.5t144.5 44.5q81 0 144 -44.5t94 -131.5l408 -1139q6 -18 6 -36q0 -44 -30.5 -79.5t-78.5 -35.5q-34 0 -62 19.5t-40 52.5l-135 383h-615l-135 -385q-12 -32 -40.5 -51t-61.5 -19q-49 0 -78 33t-29 77zM377 1772 q0 37 25.5 63.5t60.5 26.5q25 0 45 -13l278 -143q50 -26 50 -78q0 -35 -25.5 -61.5t-60.5 -26.5q-17 0 -45 12l-277 144q-51 25 -51 76zM461 651h475l-195 555q-10 31 -41 31q-33 0 -43 -31z" />
<glyph unicode="&#xc1;" horiz-adv-x="1398" d="M47 106q0 23 6 41l410 1139q30 87 92.5 131.5t144.5 44.5q81 0 144 -44.5t94 -131.5l408 -1139q6 -18 6 -36q0 -44 -30.5 -79.5t-78.5 -35.5q-34 0 -62 19.5t-40 52.5l-135 383h-615l-135 -385q-12 -32 -40.5 -51t-61.5 -19q-49 0 -78 33t-29 77zM461 651h475l-195 555 q-10 31 -41 31q-33 0 -43 -31zM549 1628q0 53 51 78l277 143q23 13 45 13q35 0 60.5 -26.5t25.5 -63.5q0 -50 -50 -76l-278 -144q-28 -12 -45 -12q-35 0 -60.5 26.5t-25.5 61.5z" />
<glyph unicode="&#xc2;" horiz-adv-x="1398" d="M47 106q0 23 6 41l410 1139q30 87 92.5 131.5t144.5 44.5q81 0 144 -44.5t94 -131.5l408 -1139q6 -18 6 -36q0 -44 -30.5 -79.5t-78.5 -35.5q-34 0 -62 19.5t-40 52.5l-135 383h-615l-135 -385q-12 -32 -40.5 -51t-61.5 -19q-49 0 -78 33t-29 77zM391 1630q0 44 39 72 l203 153q32 29 67 29q31 0 68 -29l205 -153q39 -28 39 -72q0 -36 -26 -62t-62 -26q-23 0 -58 21l-166 127l-165 -127q-32 -21 -58 -21q-35 0 -60.5 26.5t-25.5 61.5zM461 651h475l-195 555q-10 31 -41 31q-33 0 -43 -31z" />
<glyph unicode="&#xc3;" horiz-adv-x="1398" d="M47 106q0 23 6 41l410 1139q30 87 92.5 131.5t144.5 44.5q81 0 144 -44.5t94 -131.5l408 -1139q6 -18 6 -36q0 -44 -30.5 -79.5t-78.5 -35.5q-34 0 -62 19.5t-40 52.5l-135 383h-615l-135 -385q-12 -32 -40.5 -51t-61.5 -19q-49 0 -78 33t-29 77zM375 1645q0 32 35 67 q88 78 163 78q44 0 90 -19t85 -38t65 -19q30 0 67.5 30t63.5 30q34 0 57 -25.5t23 -58.5t-35 -68q-85 -78 -164 -78q-52 0 -131 37t-108 37t-66.5 -28.5t-64.5 -28.5q-34 0 -57 25.5t-23 58.5zM461 651h475l-195 555q-10 31 -41 31q-33 0 -43 -31z" />
<glyph unicode="&#xc4;" horiz-adv-x="1398" d="M47 106q0 23 6 41l410 1139q30 87 92.5 131.5t144.5 44.5q81 0 144 -44.5t94 -131.5l408 -1139q6 -18 6 -36q0 -44 -30.5 -79.5t-78.5 -35.5q-34 0 -62 19.5t-40 52.5l-135 383h-615l-135 -385q-12 -32 -40.5 -51t-61.5 -19q-49 0 -78 33t-29 77zM418 1667 q0 46 31.5 78.5t78.5 32.5q46 0 78.5 -32.5t32.5 -78.5q0 -47 -32.5 -80t-78.5 -33q-47 0 -78.5 32.5t-31.5 80.5zM461 651h475l-195 555q-10 31 -41 31q-33 0 -43 -31zM762 1667q0 46 32 78.5t78 32.5q47 0 79 -32.5t32 -78.5q0 -47 -32 -80t-79 -33q-46 0 -78 33t-32 80z " />
<glyph unicode="&#xc5;" horiz-adv-x="1398" d="M47 106q0 23 6 41l410 1139q30 87 92.5 131.5t144.5 44.5q81 0 144 -44.5t94 -131.5l408 -1139q6 -18 6 -36q0 -44 -30.5 -79.5t-78.5 -35.5q-34 0 -62 19.5t-40 52.5l-135 383h-615l-135 -385q-12 -32 -40.5 -51t-61.5 -19q-49 0 -78 33t-29 77zM461 651h475l-195 555 q-10 31 -41 31q-33 0 -43 -31zM487 1755q0 87 62 148t149 61q88 0 150.5 -61t62.5 -148q0 -88 -62.5 -149.5t-150.5 -61.5q-87 0 -149 62t-62 149zM614 1755q0 -37 24.5 -62.5t59.5 -25.5t60.5 25.5t25.5 62.5q0 35 -25.5 60.5t-60.5 25.5t-59.5 -25.5t-24.5 -60.5z" />
<glyph unicode="&#xc6;" horiz-adv-x="2160" d="M39 78.5q-11 45.5 14 79.5l774 1145q53 77 116 107t161 30h817q46 0 79.5 -32t33.5 -77q0 -44 -34 -76t-79 -32h-639v-398h621q44 0 74 -28t30 -72q0 -40 -31.5 -71t-72.5 -31h-621v-406h643q45 0 79 -32t34 -76q0 -45 -33.5 -77t-79.5 -32h-692q-80 0 -125 48t-45 120 v301h-541l-286 -428q-25 -37 -68 -45.5t-80 14.5q-38 23 -49 68.5zM655 670h408v553q-32 0 -66 -49z" />
<glyph unicode="&#xc7;" horiz-adv-x="1359" d="M131 555q-15 166 0 328q9 121 56.5 227t124.5 183.5t184.5 122t230.5 44.5q175 0 320.5 -90.5t207.5 -243.5q13 -26 13 -55q0 -42 -34 -72t-73 -30q-65 0 -100 65q-44 100 -133 157.5t-201 57.5q-160 0 -261.5 -108.5t-115.5 -278.5q-9 -146 0 -291q14 -171 115 -277 t262 -106q112 0 200.5 58t133.5 157q36 66 100 66q39 0 73 -30t34 -72q0 -26 -13 -56q-56 -137 -181 -224t-281 -105l-25 -68q89 -6 141 -60t52 -135q0 -95 -72 -162t-189 -108q-40 -14 -77 4t-37 68q0 52 57 73q93 36 122.5 62t29.5 59q0 20 -17 38t-45 18 q-15 0 -33.5 -4.5t-31.5 -4.5q-37 0 -59 32.5t-7 68.5l43 123q-218 26 -358.5 184t-155.5 385z" />
<glyph unicode="&#xc8;" horiz-adv-x="1284" d="M186 168v1106q0 72 45 119t125 47h686q47 0 80 -30.5t33 -76.5q0 -45 -34 -77.5t-79 -32.5h-634v-396h618q43 0 72.5 -29t29.5 -73q0 -40 -31 -71t-71 -31h-618v-406h641q43 0 76.5 -32t33.5 -76q0 -46 -32 -77.5t-78 -31.5h-693q-80 0 -125 48t-45 120zM379 1772 q0 37 25.5 63.5t60.5 26.5q25 0 45 -13l278 -143q50 -26 50 -78q0 -35 -25.5 -61.5t-60.5 -26.5q-17 0 -45 12l-277 144q-51 25 -51 76z" />
<glyph unicode="&#xc9;" horiz-adv-x="1284" d="M186 168v1106q0 72 45 119t125 47h686q47 0 80 -30.5t33 -76.5q0 -45 -34 -77.5t-79 -32.5h-634v-396h618q43 0 72.5 -29t29.5 -73q0 -40 -31 -71t-71 -31h-618v-406h641q43 0 76.5 -32t33.5 -76q0 -46 -32 -77.5t-78 -31.5h-693q-80 0 -125 48t-45 120zM451 1628 q0 53 51 78l276 143q23 13 45 13q35 0 60.5 -26.5t25.5 -63.5q0 -51 -49 -76l-278 -144q-28 -12 -45 -12q-35 0 -60.5 26.5t-25.5 61.5z" />
<glyph unicode="&#xca;" horiz-adv-x="1284" d="M186 168v1106q0 72 45 119t125 47h686q47 0 80 -30.5t33 -76.5q0 -45 -34 -77.5t-79 -32.5h-634v-396h618q43 0 72.5 -29t29.5 -73q0 -40 -31 -71t-71 -31h-618v-406h641q43 0 76.5 -32t33.5 -76q0 -46 -32 -77.5t-78 -31.5h-693q-80 0 -125 48t-45 120zM369 1630 q0 44 39 72l202 153q32 29 68 29q30 0 67 -29l205 -153q39 -28 39 -72q0 -36 -26 -62t-62 -26q-22 0 -57 21l-166 127l-166 -127q-32 -21 -57 -21q-35 0 -60.5 26.5t-25.5 61.5z" />
<glyph unicode="&#xcb;" horiz-adv-x="1284" d="M186 168v1106q0 72 45 119t125 47h686q47 0 80 -30.5t33 -76.5q0 -45 -34 -77.5t-79 -32.5h-634v-396h618q43 0 72.5 -29t29.5 -73q0 -40 -31 -71t-71 -31h-618v-406h641q43 0 76.5 -32t33.5 -76q0 -46 -32 -77.5t-78 -31.5h-693q-80 0 -125 48t-45 120zM401 1665 q0 46 32 78.5t79 32.5q46 0 78.5 -32.5t32.5 -78.5q0 -47 -32.5 -80t-78.5 -33q-47 0 -79 33t-32 80zM745 1665q0 46 32.5 78.5t78.5 32.5q47 0 79 -32.5t32 -78.5q0 -47 -32 -80t-79 -33q-46 0 -78.5 33t-32.5 80z" />
<glyph unicode="&#xcc;" horiz-adv-x="583" d="M-23 1772q0 37 25.5 63.5t60.5 26.5q26 0 46 -13l278 -143q49 -25 49 -78q0 -35 -25.5 -61.5t-60.5 -26.5q-17 0 -45 12l-276 144q-52 25 -52 76zM180 104v1229q0 46 33.5 79.5t77.5 33.5q47 0 78.5 -33.5t31.5 -79.5v-1229q0 -46 -31.5 -79t-78.5 -33q-45 0 -78 33 t-33 79z" />
<glyph unicode="&#xcd;" horiz-adv-x="583" d="M125 1628q0 53 51 78l277 143q23 13 45 13q35 0 60.5 -26.5t25.5 -63.5q0 -51 -49 -76l-279 -144q-28 -12 -45 -12q-35 0 -60.5 26.5t-25.5 61.5zM180 104v1229q0 46 33.5 79.5t77.5 33.5q47 0 78.5 -33.5t31.5 -79.5v-1229q0 -46 -31.5 -79t-78.5 -33q-45 0 -78 33 t-33 79z" />
<glyph unicode="&#xce;" horiz-adv-x="583" d="M-20 1630q0 45 38 72l203 153q32 29 68 29q30 0 67 -29l205 -153q39 -28 39 -72q0 -36 -26 -62t-62 -26q-22 0 -57 21l-166 127l-166 -127q-31 -21 -57 -21q-35 0 -60.5 26.5t-25.5 61.5zM180 104v1229q0 46 33.5 79.5t77.5 33.5q47 0 78.5 -33.5t31.5 -79.5v-1229 q0 -46 -31.5 -79t-78.5 -33q-45 0 -78 33t-33 79z" />
<glyph unicode="&#xcf;" horiz-adv-x="583" d="M10 1667q0 46 32 78.5t79 32.5q46 0 78 -32.5t32 -78.5q0 -47 -32 -80t-78 -33q-47 0 -79 33t-32 80zM180 104v1229q0 46 33.5 79.5t77.5 33.5q47 0 78.5 -33.5t31.5 -79.5v-1229q0 -46 -31.5 -79t-78.5 -33q-45 0 -78 33t-33 79zM354 1667q0 46 32.5 78.5t78.5 32.5 q47 0 78.5 -32.5t31.5 -78.5q0 -48 -31.5 -80.5t-78.5 -32.5q-46 0 -78.5 33t-32.5 80z" />
<glyph unicode="&#xd0;" horiz-adv-x="1472" d="M-18 717q0 42 28 70t72 28h104v459q0 75 43.5 120.5t124.5 45.5h330q157 0 280 -44.5t202.5 -126t123 -190.5t51.5 -243q9 -108 2 -224q-7 -107 -35.5 -199t-82 -168.5t-129 -130.5t-180.5 -84t-232 -30h-330q-79 0 -123.5 47.5t-44.5 120.5v448h-104q-42 0 -71 29.5 t-29 71.5zM406 217h280q211 0 318 106.5t118 297.5q7 117 2 192q-23 410 -438 410h-280v-408h280q42 0 70 -28t28 -70t-28 -71.5t-70 -29.5h-280v-399z" />
<glyph unicode="&#xd1;" horiz-adv-x="1572" d="M186 106v1154q0 78 48.5 131t125.5 53q113 0 172 -98l639 -1067h5q0 5 -4.5 123.5t-4.5 195.5v735q0 47 33 80t78 33q46 0 77 -33t31 -80v-1159q0 -75 -47 -127.5t-122 -52.5q-111 0 -168 94l-646 1081h-6q0 -10 4.5 -134t4.5 -195v-734q0 -46 -32 -79t-79 -33 q-44 0 -76.5 33.5t-32.5 78.5zM477 1649q0 32 35 67q88 78 164 78q44 0 90 -19t84.5 -38t64.5 -19q30 0 68 30t64 30q34 0 56.5 -25.5t22.5 -58.5q0 -34 -34 -68q-85 -78 -164 -78q-52 0 -131.5 37t-108.5 37t-66.5 -28.5t-64.5 -28.5q-34 0 -57 25.5t-23 58.5z" />
<glyph unicode="&#xd2;" horiz-adv-x="1497" d="M131 555q-15 166 0 328q9 120 59.5 226.5t131 183.5t191.5 122t235 45t235 -45t192 -122.5t131.5 -184t59.5 -225.5q15 -164 0 -328q-9 -121 -59.5 -227.5t-131.5 -184t-192 -122t-235 -44.5q-166 0 -303 76.5t-219.5 208t-94.5 293.5zM350 573q14 -168 124.5 -276.5 t273.5 -108.5t274 108.5t125 276.5q12 147 0 293q-14 167 -125.5 276t-273.5 109q-163 0 -273.5 -109t-124.5 -276q-12 -147 0 -293zM457 1772q0 37 25.5 63.5t60.5 26.5q25 0 45 -13l278 -143q49 -25 49 -78q0 -35 -25.5 -61.5t-60.5 -26.5q-17 0 -45 12l-276 144 q-51 25 -51 76z" />
<glyph unicode="&#xd3;" horiz-adv-x="1497" d="M131 555q-15 166 0 328q9 120 59.5 226.5t131 183.5t191.5 122t235 45t235 -45t192 -122.5t131.5 -184t59.5 -225.5q15 -164 0 -328q-9 -121 -59.5 -227.5t-131.5 -184t-192 -122t-235 -44.5q-166 0 -303 76.5t-219.5 208t-94.5 293.5zM350 573q14 -168 124.5 -276.5 t273.5 -108.5t274 108.5t125 276.5q12 147 0 293q-14 167 -125.5 276t-273.5 109q-163 0 -273.5 -109t-124.5 -276q-12 -147 0 -293zM571 1628q0 53 52 78l276 143q23 13 45 13q35 0 60.5 -26.5t25.5 -63.5q0 -51 -49 -76l-279 -144q-28 -12 -45 -12q-35 0 -60.5 26.5 t-25.5 61.5z" />
<glyph unicode="&#xd4;" horiz-adv-x="1497" d="M131 555q-15 166 0 328q9 120 59.5 226.5t131 183.5t191.5 122t235 45t235 -45t192 -122.5t131.5 -184t59.5 -225.5q15 -164 0 -328q-9 -121 -59.5 -227.5t-131.5 -184t-192 -122t-235 -44.5q-166 0 -303 76.5t-219.5 208t-94.5 293.5zM350 573q14 -168 124.5 -276.5 t273.5 -108.5t274 108.5t125 276.5q12 147 0 293q-14 167 -125.5 276t-273.5 109q-163 0 -273.5 -109t-124.5 -276q-12 -147 0 -293zM442 1630q0 44 39 72l203 153q32 29 68 29q30 0 67 -29l205 -153q39 -28 39 -72q0 -36 -26 -62t-62 -26q-22 0 -57 21l-166 127l-166 -127 q-32 -21 -58 -21q-35 0 -60.5 26.5t-25.5 61.5z" />
<glyph unicode="&#xd5;" horiz-adv-x="1497" d="M131 555q-15 166 0 328q9 120 59.5 226.5t131 183.5t191.5 122t235 45t235 -45t192 -122.5t131.5 -184t59.5 -225.5q15 -164 0 -328q-9 -121 -59.5 -227.5t-131.5 -184t-192 -122t-235 -44.5q-166 0 -303 76.5t-219.5 208t-94.5 293.5zM350 573q14 -168 124.5 -276.5 t273.5 -108.5t274 108.5t125 276.5q12 147 0 293q-14 167 -125.5 276t-273.5 109q-163 0 -273.5 -109t-124.5 -276q-12 -147 0 -293zM422 1640q0 33 35 68q88 78 164 78q44 0 90 -19t84.5 -38t64.5 -19q30 0 67.5 29.5t63.5 29.5q34 0 57 -25t23 -58t-35 -68 q-85 -78 -164 -78q-52 0 -131 37t-108 37t-66.5 -29t-64.5 -29q-34 0 -57 25.5t-23 58.5z" />
<glyph unicode="&#xd6;" horiz-adv-x="1497" d="M131 555q-15 166 0 328q9 120 59.5 226.5t131 183.5t191.5 122t235 45t235 -45t192 -122.5t131.5 -184t59.5 -225.5q15 -164 0 -328q-9 -121 -59.5 -227.5t-131.5 -184t-192 -122t-235 -44.5q-166 0 -303 76.5t-219.5 208t-94.5 293.5zM350 573q14 -168 124.5 -276.5 t273.5 -108.5t274 108.5t125 276.5q12 147 0 293q-14 167 -125.5 276t-273.5 109q-163 0 -273.5 -109t-124.5 -276q-12 -147 0 -293zM467 1667q0 46 32 78.5t79 32.5q46 0 78 -32.5t32 -78.5q0 -47 -32 -80t-78 -33q-47 0 -79 33t-32 80zM811 1667q0 46 32.5 78.5t78.5 32.5 q47 0 78.5 -32.5t31.5 -78.5q0 -48 -31.5 -80.5t-78.5 -32.5q-46 0 -78.5 33t-32.5 80z" />
<glyph unicode="&#xd7;" d="M169 1088.5q0 44.5 30 74.5q34 31 76 30t73 -32l295 -295l291 291q33 31 77 31t76 -33q29 -31 27.5 -74t-31.5 -73l-290 -289l288 -285q31 -29 33 -73t-27 -76q-32 -33 -76 -33t-77 31l-291 290l-295 -294q-31 -33 -73 -34t-76 31q-29 28 -29 73.5t31 76.5l295 293 l-295 295q-32 30 -32 74.5z" />
<glyph unicode="&#xd8;" horiz-adv-x="1501" d="M135 555q-15 166 0 328q9 120 59.5 226.5t131 183.5t191.5 122t235 45q164 0 309 -82l26 39q24 33 62.5 40t71.5 -17q32 -22 37.5 -60t-17.5 -73l-31 -47q145 -161 160 -377q15 -164 0 -328q-9 -121 -59.5 -227.5t-131.5 -184t-192 -122t-235 -44.5q-180 0 -324 89 l-29 -46q-23 -34 -61 -40.5t-72 16.5q-32 23 -37.5 61.5t17.5 73.5l37 57q-133 155 -148 367zM354 573q9 -108 58 -190l534 817q-88 51 -194 51q-163 0 -273.5 -109t-124.5 -276q-12 -147 0 -293zM545 244q89 -56 207 -56q163 0 274 108.5t125 276.5q12 147 0 293 q-8 107 -66 201z" />
<glyph unicode="&#xd9;" horiz-adv-x="1531" d="M168 598v735q0 45 34 79t79 34t76.5 -33.5t31.5 -79.5v-741q0 -184 105.5 -294t271.5 -110q165 0 270 109.5t105 294.5v741q0 47 32.5 80t77.5 33q47 0 79 -33t32 -80v-735q0 -136 -45 -252.5t-124.5 -197t-189.5 -126t-237 -45.5t-237.5 45.5t-190 126t-125 197 t-45.5 252.5zM496 1772q0 37 25.5 63.5t60.5 26.5q26 0 45 -13l278 -143q49 -25 49 -78q0 -35 -25.5 -61.5t-60.5 -26.5q-17 0 -45 12l-276 144q-51 25 -51 76z" />
<glyph unicode="&#xda;" horiz-adv-x="1531" d="M168 598v735q0 45 34 79t79 34t76.5 -33.5t31.5 -79.5v-741q0 -184 105.5 -294t271.5 -110q165 0 270 109.5t105 294.5v741q0 47 32.5 80t77.5 33q47 0 79 -33t32 -80v-735q0 -136 -45 -252.5t-124.5 -197t-189.5 -126t-237 -45.5t-237.5 45.5t-190 126t-125 197 t-45.5 252.5zM567 1628q0 53 51 78l277 143q23 13 45 13q35 0 60.5 -26.5t25.5 -63.5q0 -51 -49 -76l-279 -144q-28 -12 -45 -12q-35 0 -60.5 26.5t-25.5 61.5z" />
<glyph unicode="&#xdb;" horiz-adv-x="1531" d="M168 598v735q0 45 34 79t79 34t76.5 -33.5t31.5 -79.5v-741q0 -184 105.5 -294t271.5 -110q165 0 270 109.5t105 294.5v741q0 47 32.5 80t77.5 33q47 0 79 -33t32 -80v-735q0 -136 -45 -252.5t-124.5 -197t-189.5 -126t-237 -45.5t-237.5 45.5t-190 126t-125 197 t-45.5 252.5zM459 1630q0 44 39 72l202 153q32 29 68 29q31 0 68 -29l204 -153q39 -28 39 -72q0 -36 -26 -62t-62 -26q-22 0 -57 21l-166 127l-166 -127q-32 -21 -57 -21q-35 0 -60.5 26.5t-25.5 61.5z" />
<glyph unicode="&#xdc;" horiz-adv-x="1531" d="M168 598v735q0 45 34 79t79 34t76.5 -33.5t31.5 -79.5v-741q0 -184 105.5 -294t271.5 -110q165 0 270 109.5t105 294.5v741q0 47 32.5 80t77.5 33q47 0 79 -33t32 -80v-735q0 -136 -45 -252.5t-124.5 -197t-189.5 -126t-237 -45.5t-237.5 45.5t-190 126t-125 197 t-45.5 252.5zM483 1667q0 46 32 78.5t79 32.5q46 0 78.5 -32.5t32.5 -78.5q0 -47 -32.5 -80t-78.5 -33q-47 0 -79 33t-32 80zM827 1667q0 46 32.5 78.5t78.5 32.5q47 0 79 -32.5t32 -78.5q0 -47 -32 -80t-79 -33q-46 0 -78.5 33t-32.5 80z" />
<glyph unicode="&#xdd;" horiz-adv-x="1337" d="M29 1335q0 44 32.5 77.5t77.5 33.5q53 0 88 -41l441 -553l442 551q34 43 88 43q45 0 78 -34.5t33 -78.5q0 -41 -27 -71l-448 -547q-3 -4 -15 -18t-15 -18t-10 -15.5t-9 -19.5t-4.5 -20t-2.5 -26v-494q0 -47 -31.5 -79.5t-78.5 -32.5q-44 0 -77.5 34t-33.5 78v494 q0 12 -1 21.5t-5 19.5t-5.5 15.5t-9.5 16.5t-9.5 13.5t-13 16.5t-13.5 16l-445 545q-26 33 -26 73zM438 1628q0 53 51 78l277 143q23 13 45 13q35 0 60.5 -26.5t25.5 -63.5q0 -51 -49 -76l-279 -144q-28 -12 -45 -12q-35 0 -60.5 26.5t-25.5 61.5z" />
<glyph unicode="&#xde;" horiz-adv-x="1323" d="M186 104v1235q0 46 32 79.5t77 33.5q46 0 78.5 -33t32.5 -80v-155h352q98 0 185 -31.5t153 -89t104.5 -146t38.5 -196.5q0 -220 -138 -344.5t-360 -124.5h-335v-148q0 -48 -32 -81t-79 -33q-44 0 -76.5 34t-32.5 80zM406 463h331q143 0 211 69t68 191q0 120 -68.5 190 t-202.5 70h-339v-520z" />
<glyph unicode="&#xdf;" horiz-adv-x="1388" d="M170 102v928q0 205 124.5 319.5t354.5 114.5q180 0 290 -83t110 -222q0 -53 -16.5 -98.5t-40.5 -76t-48 -57.5t-40.5 -57.5t-16.5 -62.5q0 -48 36 -74.5t140 -70.5q134 -55 192 -135t58 -191q0 -146 -113 -251t-301 -105q-177 0 -321 112q-36 30 -44 76t15 76 q24 35 65.5 41t85.5 -25q39 -28 57.5 -40t56 -23t83.5 -11q92 0 146.5 42.5t54.5 125.5q0 62 -42 99.5t-143 72.5q-132 43 -187.5 101t-55.5 157q0 48 17 89t41 70t48 56t41 59t17 66q0 66 -50 105.5t-143 38.5q-254 -3 -254 -254v-912q0 -46 -32 -79t-79 -33 q-43 0 -74.5 33t-31.5 79z" />
<glyph unicode="&#xe0;" horiz-adv-x="1146" d="M111 334q0 144 106 242t309 98q117 0 260 -35v68q0 104 -53.5 151t-173.5 47q-95 0 -223 -45q-65 -21 -107.5 5.5t-42.5 76.5q0 67 72 100q49 24 137 43t176 19q203 0 313.5 -98t110.5 -299v-533q0 -55 -39 -80q-60 -41 -172.5 -77.5t-253.5 -36.5q-203 0 -311 98 t-108 256zM324 342q0 -83 58 -127.5t167 -44.5q64 0 119.5 13.5t79 25.5t38.5 24v228q-137 35 -247 35q-96 0 -155.5 -41t-59.5 -113zM326 1436q0 37 25.5 63.5t60.5 26.5q25 0 45 -13l278 -143q49 -25 49 -78q0 -35 -25.5 -61.5t-60.5 -26.5q-15 0 -45 13l-276 143 q-51 25 -51 76z" />
<glyph unicode="&#xe1;" horiz-adv-x="1146" d="M111 334q0 144 106 242t309 98q117 0 260 -35v68q0 104 -53.5 151t-173.5 47q-95 0 -223 -45q-65 -21 -107.5 5.5t-42.5 76.5q0 67 72 100q49 24 137 43t176 19q203 0 313.5 -98t110.5 -299v-533q0 -55 -39 -80q-60 -41 -172.5 -77.5t-253.5 -36.5q-203 0 -311 98 t-108 256zM324 342q0 -83 58 -127.5t167 -44.5q64 0 119.5 13.5t79 25.5t38.5 24v228q-137 35 -247 35q-96 0 -155.5 -41t-59.5 -113zM379 1292q0 53 51 78l277 143q23 13 45 13q35 0 60.5 -26.5t25.5 -63.5q0 -50 -50 -76l-278 -143q-30 -13 -45 -13q-35 0 -60.5 26.5 t-25.5 61.5z" />
<glyph unicode="&#xe2;" horiz-adv-x="1146" d="M111 334q0 144 106 242t309 98q117 0 260 -35v68q0 104 -53.5 151t-173.5 47q-95 0 -223 -45q-65 -21 -107.5 5.5t-42.5 76.5q0 67 72 100q49 24 137 43t176 19q203 0 313.5 -98t110.5 -299v-533q0 -55 -39 -80q-60 -41 -172.5 -77.5t-253.5 -36.5q-203 0 -311 98 t-108 256zM274 1268q0 43 39 71l203 154q32 29 68 29q30 0 67 -29l205 -154q39 -28 39 -71q0 -36 -26 -62t-62 -26q-24 0 -57 20l-166 127l-166 -127q-30 -20 -58 -20q-35 0 -60.5 26.5t-25.5 61.5zM324 342q0 -83 58 -127.5t167 -44.5q64 0 119.5 13.5t79 25.5t38.5 24v228 q-137 35 -247 35q-96 0 -155.5 -41t-59.5 -113z" />
<glyph unicode="&#xe3;" horiz-adv-x="1146" d="M111 334q0 144 106 242t309 98q117 0 260 -35v68q0 104 -53.5 151t-173.5 47q-95 0 -223 -45q-65 -21 -107.5 5.5t-42.5 76.5q0 67 72 100q49 24 137 43t176 19q203 0 313.5 -98t110.5 -299v-533q0 -55 -39 -80q-60 -41 -172.5 -77.5t-253.5 -36.5q-203 0 -311 98 t-108 256zM254 1313q0 32 35 67q88 78 164 78q44 0 90 -19t84.5 -38t64.5 -19q30 0 67.5 30t63.5 30q34 0 57 -25.5t23 -58.5t-35 -68q-85 -78 -163 -78q-52 0 -131.5 37t-108.5 37t-66.5 -28.5t-64.5 -28.5q-34 0 -57 25.5t-23 58.5zM324 342q0 -83 58 -127.5t167 -44.5 q64 0 119.5 13.5t79 25.5t38.5 24v228q-137 35 -247 35q-96 0 -155.5 -41t-59.5 -113z" />
<glyph unicode="&#xe4;" horiz-adv-x="1146" d="M111 334q0 144 106 242t309 98q117 0 260 -35v68q0 104 -53.5 151t-173.5 47q-95 0 -223 -45q-65 -21 -107.5 5.5t-42.5 76.5q0 67 72 100q49 24 137 43t176 19q203 0 313.5 -98t110.5 -299v-533q0 -55 -39 -80q-60 -41 -172.5 -77.5t-253.5 -36.5q-203 0 -311 98 t-108 256zM299 1335q0 46 32 78.5t79 32.5q46 0 78 -32.5t32 -78.5q0 -47 -32 -79.5t-78 -32.5q-47 0 -79 32.5t-32 79.5zM324 342q0 -83 58 -127.5t167 -44.5q64 0 119.5 13.5t79 25.5t38.5 24v228q-137 35 -247 35q-96 0 -155.5 -41t-59.5 -113zM643 1335q0 46 32.5 78.5 t78.5 32.5q47 0 78.5 -32.5t31.5 -78.5q0 -47 -31.5 -79.5t-78.5 -32.5q-46 0 -78.5 32.5t-32.5 79.5z" />
<glyph unicode="&#xe5;" horiz-adv-x="1146" d="M111 334q0 144 106 242t309 98q117 0 260 -35v68q0 104 -53.5 151t-173.5 47q-95 0 -223 -45q-65 -21 -107.5 5.5t-42.5 76.5q0 67 72 100q49 24 137 43t176 19q203 0 313.5 -98t110.5 -299v-533q0 -55 -39 -80q-60 -41 -172.5 -77.5t-253.5 -36.5q-203 0 -311 98 t-108 256zM324 342q0 -83 58 -127.5t167 -44.5q64 0 119.5 13.5t79 25.5t38.5 24v228q-137 35 -247 35q-96 0 -155.5 -41t-59.5 -113zM371 1376q0 87 62 148t149 61q88 0 150.5 -61t62.5 -148q0 -88 -62.5 -149.5t-150.5 -61.5q-87 0 -149 62t-62 149zM498 1376 q0 -37 24.5 -62.5t59.5 -25.5t60.5 25.5t25.5 62.5q0 35 -25.5 60.5t-60.5 25.5t-59.5 -25.5t-24.5 -60.5z" />
<glyph unicode="&#xe6;" horiz-adv-x="1820" d="M111 338q0 142 105.5 236t309.5 94q117 0 260 -35v76q0 104 -54 152t-173 48q-89 0 -223 -47q-65 -21 -107.5 5.5t-42.5 78.5q0 63 72 96q53 25 139.5 43.5t173.5 18.5q234 0 340 -146q62 70 150 108t190 38q201 0 328 -125.5t127 -337.5v-53q0 -60 -32.5 -95.5 t-98.5 -35.5h-580v-25q0 -121 74 -187.5t197 -66.5q96 0 235 49q63 25 105.5 -5t42.5 -79q0 -56 -56 -92q-52 -32 -144 -51.5t-185 -19.5q-195 0 -324 122q-66 -46 -176 -84t-234 -38q-203 0 -311 100t-108 258zM324 342q0 -84 57.5 -129t169.5 -45q138 0 270 90 q-39 92 -39 209q-142 37 -243 37q-96 0 -155.5 -43.5t-59.5 -118.5zM993 629h477q22 0 25 24q6 119 -60 189.5t-184 70.5q-130 0 -195 -77.5t-63 -206.5z" />
<glyph unicode="&#xe7;" horiz-adv-x="1144" d="M133 401q-7 147 0 291q12 183 144 297.5t329 114.5q103 0 189.5 -33t137 -82t78 -99t27.5 -91q0 -47 -28.5 -79t-73.5 -32q-63 0 -92 60q-34 74 -95.5 110.5t-138.5 36.5q-114 0 -182.5 -61t-77.5 -166q-10 -135 0 -242q9 -107 76.5 -172.5t183.5 -65.5q76 0 139 38 t97 112q29 59 94 59q44 0 74 -31.5t30 -78.5q0 -38 -24.5 -84.5t-69 -92t-119 -80.5t-163.5 -44l-27 -72q89 -6 141 -60t52 -135q0 -95 -71.5 -162.5t-187.5 -107.5q-42 -14 -79 4t-37 68q0 51 57 73q93 36 122.5 62t29.5 59q0 20 -16.5 38t-43.5 18q-16 0 -34.5 -4.5 t-32.5 -4.5q-37 0 -58 32t-8 69l45 125q-164 24 -269.5 139t-117.5 274z" />
<glyph unicode="&#xe8;" horiz-adv-x="1169" d="M135 420q-9 115 0 254q15 196 143.5 313t323.5 117q205 0 330 -126.5t125 -332.5v-57q0 -60 -33 -95.5t-98 -35.5h-580v-25q0 -121 73.5 -187.5t196.5 -66.5q101 0 236 49q63 24 105 -5.5t42 -78.5q0 -59 -55 -92q-52 -32 -145 -51.5t-187 -19.5q-209 0 -337 121.5 t-140 318.5zM330 1436q0 37 25.5 63.5t60.5 26.5q26 0 45 -13l278 -143q49 -25 49 -78q0 -35 -25.5 -61.5t-60.5 -26.5q-15 0 -45 13l-276 143q-51 25 -51 76zM346 629h475q22 0 25 24q8 116 -59 187t-185 71q-128 0 -193.5 -75t-62.5 -207z" />
<glyph unicode="&#xe9;" horiz-adv-x="1169" d="M135 420q-9 115 0 254q15 196 143.5 313t323.5 117q205 0 330 -126.5t125 -332.5v-57q0 -60 -33 -95.5t-98 -35.5h-580v-25q0 -121 73.5 -187.5t196.5 -66.5q101 0 236 49q63 24 105 -5.5t42 -78.5q0 -59 -55 -92q-52 -32 -145 -51.5t-187 -19.5q-209 0 -337 121.5 t-140 318.5zM346 629h475q22 0 25 24q8 116 -59 187t-185 71q-128 0 -193.5 -75t-62.5 -207zM414 1292q0 53 51 78l276 143q23 13 45 13q35 0 60.5 -26.5t25.5 -63.5q0 -51 -49 -76l-278 -143q-30 -13 -45 -13q-35 0 -60.5 26.5t-25.5 61.5z" />
<glyph unicode="&#xea;" horiz-adv-x="1169" d="M135 420q-9 115 0 254q15 196 143.5 313t323.5 117q205 0 330 -126.5t125 -332.5v-57q0 -60 -33 -95.5t-98 -35.5h-580v-25q0 -121 73.5 -187.5t196.5 -66.5q101 0 236 49q63 24 105 -5.5t42 -78.5q0 -59 -55 -92q-52 -32 -145 -51.5t-187 -19.5q-209 0 -337 121.5 t-140 318.5zM283 1294q0 44 39 72l202 154q31 28 68 28q31 0 67 -28l205 -154q39 -28 39 -72q0 -36 -26 -62t-62 -26q-22 0 -57 21l-166 127l-166 -127q-32 -21 -57 -21q-35 0 -60.5 26.5t-25.5 61.5zM346 629h475q22 0 25 24q8 116 -59 187t-185 71q-128 0 -193.5 -75 t-62.5 -207z" />
<glyph unicode="&#xeb;" horiz-adv-x="1169" d="M135 420q-9 115 0 254q15 196 143.5 313t323.5 117q205 0 330 -126.5t125 -332.5v-57q0 -60 -33 -95.5t-98 -35.5h-580v-25q0 -121 73.5 -187.5t196.5 -66.5q101 0 236 49q63 24 105 -5.5t42 -78.5q0 -59 -55 -92q-52 -32 -145 -51.5t-187 -19.5q-209 0 -337 121.5 t-140 318.5zM319 1335q0 46 32 78.5t79 32.5q46 0 78.5 -32.5t32.5 -78.5q0 -47 -32.5 -79.5t-78.5 -32.5q-47 0 -79 32.5t-32 79.5zM346 629h475q22 0 25 24q8 116 -59 187t-185 71q-128 0 -193.5 -75t-62.5 -207zM664 1335q0 46 32 78.5t78 32.5q47 0 79 -32.5t32 -78.5 q0 -47 -32 -79.5t-79 -32.5q-46 0 -78 32.5t-32 79.5z" />
<glyph unicode="&#xec;" horiz-adv-x="573" d="M-4 1436q0 37 25.5 63.5t60.5 26.5q25 0 45 -13l279 -143q49 -25 49 -78q0 -35 -25.5 -61.5t-60.5 -26.5q-15 0 -45 13l-277 143q-51 25 -51 76zM180 102v877q0 46 31 78.5t76 32.5q44 0 76 -32.5t32 -78.5v-877q0 -47 -30.5 -79.5t-77.5 -32.5q-43 0 -75 33t-32 79z" />
<glyph unicode="&#xed;" horiz-adv-x="573" d="M123 1292q0 53 51 78l277 143q23 13 45 13q35 0 60.5 -26.5t25.5 -63.5q0 -50 -50 -76l-278 -143q-30 -13 -45 -13q-35 0 -60.5 26.5t-25.5 61.5zM180 102v877q0 46 31 78.5t76 32.5q44 0 76 -32.5t32 -78.5v-877q0 -47 -30.5 -79.5t-77.5 -32.5q-43 0 -75 33t-32 79z " />
<glyph unicode="&#xee;" horiz-adv-x="573" d="M-14 1294q0 44 39 72l202 154q31 28 68 28q31 0 67 -28l205 -154q39 -28 39 -72q0 -36 -26 -62t-62 -26q-22 0 -57 21l-166 127l-166 -127q-31 -21 -57 -21q-35 0 -60.5 26.5t-25.5 61.5zM180 102v877q0 46 31 78.5t76 32.5q44 0 76 -32.5t32 -78.5v-877 q0 -47 -30.5 -79.5t-77.5 -32.5q-43 0 -75 33t-32 79z" />
<glyph unicode="&#xef;" horiz-adv-x="573" d="M10 1335q0 46 32 78.5t79 32.5q46 0 78 -32.5t32 -78.5q0 -47 -32 -79.5t-78 -32.5q-47 0 -79 32.5t-32 79.5zM180 102v877q0 46 31 78.5t76 32.5q44 0 76 -32.5t32 -78.5v-877q0 -47 -30.5 -79.5t-77.5 -32.5q-43 0 -75 33t-32 79zM354 1335q0 46 32.5 78.5t78.5 32.5 q47 0 78.5 -32.5t31.5 -78.5q0 -47 -31.5 -79.5t-78.5 -32.5q-46 0 -78.5 32.5t-32.5 79.5z" />
<glyph unicode="&#xf0;" horiz-adv-x="1239" d="M133 635q14 180 141 291.5t320 111.5q150 0 270 -96q-3 145 -82 242l-137 -60q-35 -15 -70.5 -3t-52.5 44q-14 35 -0.5 69.5t49.5 51.5l62 27l-15 10q-41 26 -51 67t8 68q16 32 52 44.5t75 -5.5q87 -46 138 -92l110 49q33 15 70 3.5t51 -46.5q15 -34 1 -70t-48 -49 l-63 -28q102 -163 102 -420v-418q0 -194 -133 -320t-332 -126q-189 0 -319 118.5t-144 296.5q-8 114 -2 240zM354 412q8 -99 74.5 -161.5t169.5 -62.5t170 63t76 163q7 98 0 196q-8 97 -74.5 159t-171.5 62t-170.5 -61.5t-73.5 -159.5q-8 -120 0 -198z" />
<glyph unicode="&#xf1;" horiz-adv-x="1234" d="M166 102v805q0 32 9.5 50.5t33.5 33.5q56 43 167.5 78t256.5 35q221 0 334.5 -111.5t113.5 -320.5v-570q0 -46 -30.5 -78t-77.5 -32q-43 0 -76 32.5t-33 77.5v560q0 116 -67 174.5t-170 58.5q-71 0 -138.5 -17t-105.5 -40v-736q0 -46 -31.5 -78t-77.5 -32 q-43 0 -75.5 32.5t-32.5 77.5zM283 1313q0 33 34 67q88 78 164 78q44 0 90 -19t85 -38t65 -19q30 0 67.5 30t63.5 30q34 0 57 -25.5t23 -58.5t-35 -68q-85 -78 -164 -78q-52 0 -131 37t-108 37t-67 -28.5t-65 -28.5q-34 0 -56.5 25.5t-22.5 58.5z" />
<glyph unicode="&#xf2;" horiz-adv-x="1214" d="M133 399q-7 148 0 293q13 182 146 297t327 115q197 0 329 -114.5t144 -297.5q11 -145 0 -293q-12 -181 -145 -300t-328 -119q-193 0 -326 119t-147 300zM350 426q9 -108 78 -173t178 -65q110 0 179.5 65t78.5 173q5 78 0 238q-6 103 -75 167t-183 64q-112 0 -180 -64 t-76 -167q-9 -145 0 -238zM350 1436q0 37 25.5 63.5t60.5 26.5q25 0 45 -13l279 -143q49 -25 49 -78q0 -35 -25.5 -61.5t-60.5 -26.5q-15 0 -45 13l-277 143q-51 25 -51 76z" />
<glyph unicode="&#xf3;" horiz-adv-x="1214" d="M133 399q-7 148 0 293q13 182 146 297t327 115q197 0 329 -114.5t144 -297.5q11 -145 0 -293q-12 -181 -145 -300t-328 -119q-193 0 -326 119t-147 300zM350 426q9 -108 78 -173t178 -65q110 0 179.5 65t78.5 173q5 78 0 238q-6 103 -75 167t-183 64q-112 0 -180 -64 t-76 -167q-9 -145 0 -238zM395 1292q0 53 51 78l277 143q23 13 45 13q35 0 60.5 -26.5t25.5 -63.5q0 -51 -49 -76l-279 -143q-30 -13 -45 -13q-35 0 -60.5 26.5t-25.5 61.5z" />
<glyph unicode="&#xf4;" horiz-adv-x="1214" d="M133 399q-7 148 0 293q13 182 146 297t327 115q197 0 329 -114.5t144 -297.5q11 -145 0 -293q-12 -181 -145 -300t-328 -119q-193 0 -326 119t-147 300zM299 1292q0 44 39 72l203 154q31 28 67 28q32 0 68 -28l205 -154q39 -28 39 -72q0 -36 -26 -62t-63 -26 q-22 0 -57 21l-166 127l-166 -127q-32 -21 -57 -21q-35 0 -60.5 26.5t-25.5 61.5zM350 426q9 -108 78 -173t178 -65q110 0 179.5 65t78.5 173q5 78 0 238q-6 103 -75 167t-183 64q-112 0 -180 -64t-76 -167q-9 -145 0 -238z" />
<glyph unicode="&#xf5;" horiz-adv-x="1214" d="M133 399q-7 148 0 293q13 182 146 297t327 115q197 0 329 -114.5t144 -297.5q11 -145 0 -293q-12 -181 -145 -300t-328 -119q-193 0 -326 119t-147 300zM279 1313q0 33 34 67q88 78 164 78q44 0 90 -19t85 -38t65 -19q30 0 67.5 30t63.5 30q34 0 57 -25.5t23 -58.5 t-35 -68q-85 -78 -164 -78q-52 0 -131.5 37t-108.5 37t-66.5 -28.5t-64.5 -28.5q-34 0 -56.5 25.5t-22.5 58.5zM350 426q9 -108 78 -173t178 -65q110 0 179.5 65t78.5 173q5 78 0 238q-6 103 -75 167t-183 64q-112 0 -180 -64t-76 -167q-9 -145 0 -238z" />
<glyph unicode="&#xf6;" horiz-adv-x="1214" d="M133 399q-7 148 0 293q13 182 146 297t327 115q197 0 329 -114.5t144 -297.5q11 -145 0 -293q-12 -181 -145 -300t-328 -119q-193 0 -326 119t-147 300zM324 1335q0 46 31.5 78.5t78.5 32.5q46 0 78.5 -32.5t32.5 -78.5q0 -47 -32.5 -79.5t-78.5 -32.5q-47 0 -78.5 32.5 t-31.5 79.5zM350 426q9 -108 78 -173t178 -65q110 0 179.5 65t78.5 173q5 78 0 238q-6 103 -75 167t-183 64q-112 0 -180 -64t-76 -167q-9 -145 0 -238zM668 1335q0 46 32 78.5t78 32.5q47 0 79 -32.5t32 -78.5q0 -47 -32 -79.5t-79 -32.5q-46 0 -78 32.5t-32 79.5z" />
<glyph unicode="&#xf7;" d="M123 717q0 44 31 74t75 30h828q44 0 75 -30t31 -74q0 -43 -31.5 -74t-74.5 -31h-828q-44 0 -75 31t-31 74zM514 315q0 53 38 91t91 38t91 -38t38 -91t-38 -91t-91 -38t-91 38t-38 91zM514 1120q0 52 38 90.5t91 38.5t91 -38.5t38 -90.5t-38 -90.5t-91 -38.5t-91 38.5 t-38 90.5z" />
<glyph unicode="&#xf8;" horiz-adv-x="1220" d="M123.5 78q-1.5 40 23.5 67l50 58q-54 94 -60 196q-7 148 0 293q13 182 146 297t327 115q162 0 289 -84l35 41q26 30 64.5 33.5t66.5 -21.5q30 -23 31 -64.5t-25 -68.5l-47 -53q49 -81 59 -195q11 -145 0 -293q-12 -181 -145 -300t-328 -119q-160 0 -288 88l-37 -43 q-26 -30 -65 -33t-66 22q-29 24 -30.5 64zM344.5 511q1.5 -94 9.5 -126l404 471q-64 39 -148 39q-112 0 -183 -64t-79 -167q-5 -59 -3.5 -153zM459 227q59 -39 151 -39q110 0 182.5 65.5t81.5 172.5q5 68 3 152.5t-9 126.5z" />
<glyph unicode="&#xf9;" horiz-adv-x="1234" d="M156 416v559q0 51 28.5 83t77.5 32q46 0 78.5 -33t32.5 -82v-557q0 -106 63.5 -168t173.5 -62q135 0 244 68v721q0 47 31.5 80t77.5 33q44 0 76 -33t32 -80v-793q0 -56 -41 -82q-65 -46 -172.5 -84t-249.5 -38q-209 0 -330.5 114.5t-121.5 321.5zM365 1436 q0 37 25.5 63.5t60.5 26.5q25 0 45 -13l278 -143q49 -25 49 -78q0 -35 -25.5 -61.5t-60.5 -26.5q-15 0 -45 13l-276 143q-51 25 -51 76z" />
<glyph unicode="&#xfa;" horiz-adv-x="1234" d="M156 416v559q0 51 28.5 83t77.5 32q46 0 78.5 -33t32.5 -82v-557q0 -106 63.5 -168t173.5 -62q135 0 244 68v721q0 47 31.5 80t77.5 33q44 0 76 -33t32 -80v-793q0 -56 -41 -82q-65 -46 -172.5 -84t-249.5 -38q-209 0 -330.5 114.5t-121.5 321.5zM424 1292q0 53 51 78 l277 143q23 13 45 13q35 0 60.5 -26.5t25.5 -63.5q0 -51 -49 -76l-279 -143q-30 -13 -45 -13q-35 0 -60.5 26.5t-25.5 61.5z" />
<glyph unicode="&#xfb;" horiz-adv-x="1234" d="M156 416v559q0 51 28.5 83t77.5 32q46 0 78.5 -33t32.5 -82v-557q0 -106 63.5 -168t173.5 -62q135 0 244 68v721q0 47 31.5 80t77.5 33q44 0 76 -33t32 -80v-793q0 -56 -41 -82q-65 -46 -172.5 -84t-249.5 -38q-209 0 -330.5 114.5t-121.5 321.5zM307 1294q0 44 39 72 l203 154q31 28 67 28q32 0 68 -28l205 -154q39 -28 39 -72q0 -36 -26 -62t-62 -26q-23 0 -58 21l-166 127l-165 -127q-32 -21 -58 -21q-35 0 -60.5 26.5t-25.5 61.5z" />
<glyph unicode="&#xfc;" horiz-adv-x="1234" d="M156 416v559q0 51 28.5 83t77.5 32q46 0 78.5 -33t32.5 -82v-557q0 -106 63.5 -168t173.5 -62q135 0 244 68v721q0 47 31.5 80t77.5 33q44 0 76 -33t32 -80v-793q0 -56 -41 -82q-65 -46 -172.5 -84t-249.5 -38q-209 0 -330.5 114.5t-121.5 321.5zM338 1335q0 46 32 78.5 t79 32.5q46 0 78 -32.5t32 -78.5q0 -47 -32 -79.5t-78 -32.5q-47 0 -79 32.5t-32 79.5zM682 1335q0 46 32.5 78.5t78.5 32.5q47 0 78.5 -32.5t31.5 -78.5q0 -47 -31.5 -79.5t-78.5 -32.5q-46 0 -78.5 32.5t-32.5 79.5z" />
<glyph unicode="&#xfd;" horiz-adv-x="1073" d="M51 932q-25 59 9 108.5t90 49.5q82 0 110 -82l277 -662q3 -6 8 -6q7 0 10 6l254 658q14 39 43 62.5t68 23.5q61 0 94 -50t8 -108l-385 -916q-58 -139 -134.5 -240.5t-144.5 -144.5q-48 -30 -92 -30q-42 0 -72 28.5t-30 73.5q0 59 45 88q61 37 118.5 109t96.5 174z M418 1294q0 53 51 78l276 144q21 12 46 12q35 0 60.5 -26.5t25.5 -63.5q0 -50 -50 -76l-278 -143q-30 -13 -45 -13q-35 0 -60.5 26.5t-25.5 61.5z" />
<glyph unicode="&#xfe;" horiz-adv-x="1228" d="M170 -293v1643q0 46 31.5 78t77.5 32q44 0 76 -32t32 -78v-306q132 60 252 60q201 0 320.5 -111t134.5 -303q13 -165 0 -295q-18 -195 -134.5 -305t-318.5 -110q-115 0 -254 61v-334q0 -46 -30.5 -78t-77.5 -32q-43 0 -76 32.5t-33 77.5zM387 256q38 -25 104.5 -46.5 t135.5 -21.5q236 0 252 230q6 153 0 241q-18 236 -250 236q-63 0 -134.5 -24.5t-107.5 -51.5v-563z" />
<glyph unicode="&#xff;" horiz-adv-x="1073" d="M51 932q-25 59 9 108.5t90 49.5q82 0 110 -82l277 -662q3 -6 8 -6q7 0 10 6l254 658q14 39 43 62.5t68 23.5q61 0 94 -50t8 -108l-385 -916q-58 -139 -134.5 -240.5t-144.5 -144.5q-48 -30 -92 -30q-42 0 -72 28.5t-30 73.5q0 59 45 88q61 37 118.5 109t96.5 174z M262 1335q0 46 32 78.5t79 32.5q46 0 78 -32.5t32 -78.5q0 -47 -32 -79.5t-78 -32.5q-47 0 -79 32.5t-32 79.5zM606 1335q0 46 32.5 78.5t78.5 32.5q47 0 78.5 -32.5t31.5 -78.5q0 -47 -31.5 -79.5t-78.5 -32.5q-46 0 -78.5 32.5t-32.5 79.5z" />
<glyph unicode="&#x152;" horiz-adv-x="2209" d="M129 582q-9 134 0 264q8 130 56 241.5t130 194.5t204 130.5t269 47.5q113 0 261 -10t223 -10h698q46 0 79.5 -32t33.5 -77q0 -44 -34 -76t-79 -32h-645v-398h627q44 0 74 -28t30 -72q0 -40 -31.5 -71t-72.5 -31h-627v-406h649q45 0 79 -32t34 -76q0 -45 -33.5 -77 t-79.5 -32h-741q-44 0 -186 -11.5t-261 -11.5q-147 0 -268 46t-203 127.5t-129.5 191.5t-56.5 240zM348 600q11 -189 123 -300.5t317 -111.5q162 0 318 19v1026q-167 18 -318 18q-203 0 -316 -116t-124 -306q-6 -115 0 -229z" />
<glyph unicode="&#x153;" horiz-adv-x="1904" d="M133 401q-7 147 0 291q13 182 146 297t327 115q116 0 212 -44t157 -122q62 79 154.5 122.5t203.5 43.5q205 0 330 -126.5t125 -332.5v-57q0 -60 -32.5 -95.5t-96.5 -35.5h-582v-25q0 -121 75 -187.5t198 -66.5q94 0 233 49q63 25 105.5 -5t42.5 -79q0 -58 -56 -92 q-53 -32 -146 -51.5t-186 -19.5q-121 0 -215.5 45t-154.5 125q-63 -79 -158 -124.5t-209 -45.5q-194 0 -326.5 120t-146.5 301zM350 424q9 -108 77.5 -172t178.5 -64t179.5 64t78.5 172q5 80 0 244q-6 103 -75 165t-183 62q-112 0 -180 -62t-76 -165q-9 -148 0 -244z M1077 629h475q22 0 25 24q6 120 -59 190t-185 70q-126 0 -192.5 -75.5t-63.5 -208.5z" />
<glyph unicode="&#x178;" horiz-adv-x="1337" d="M29 1335q0 44 32.5 77.5t77.5 33.5q53 0 88 -41l441 -553l442 551q34 43 88 43q45 0 78 -34.5t33 -78.5q0 -41 -27 -71l-448 -547q-3 -4 -15 -18t-15 -18t-10 -15.5t-9 -19.5t-4.5 -20t-2.5 -26v-494q0 -47 -31.5 -79.5t-78.5 -32.5q-44 0 -77.5 34t-33.5 78v494 q0 12 -1 21.5t-5 19.5t-5.5 15.5t-9.5 16.5t-9.5 13.5t-13 16.5t-13.5 16l-445 545q-26 33 -26 73zM385 1563q0 46 32 78t79 32q46 0 78 -32t32 -78q0 -47 -32 -80t-78 -33q-47 0 -79 33t-32 80zM729 1563q0 46 32.5 78t78.5 32q47 0 78.5 -32t31.5 -78q0 -48 -31.5 -80.5 t-78.5 -32.5q-46 0 -78.5 33t-32.5 80z" />
<glyph unicode="&#x2c6;" horiz-adv-x="782" d="M80 1626q0 44 39 72l203 153q32 29 67 29q31 0 68 -29l205 -153q38 -27 38 -72q0 -36 -26 -62t-62 -26q-22 0 -57 21l-166 127l-166 -127q-31 -21 -57 -21q-35 0 -60.5 26.5t-25.5 61.5z" />
<glyph unicode="&#x2dc;" horiz-adv-x="782" d="M70 1636q0 34 34 68q88 78 164 78q44 0 90 -19t85 -38t65 -19q30 0 67.5 29.5t63.5 29.5q34 0 57 -25.5t23 -58.5q0 -32 -35 -67q-85 -78 -164 -78q-52 0 -131 37t-108 37t-66.5 -29t-64.5 -29q-34 0 -57 25.5t-23 58.5z" />
<glyph unicode="&#x2000;" horiz-adv-x="982" />
<glyph unicode="&#x2001;" horiz-adv-x="1964" />
<glyph unicode="&#x2002;" horiz-adv-x="982" />
<glyph unicode="&#x2003;" horiz-adv-x="1964" />
<glyph unicode="&#x2004;" horiz-adv-x="654" />
<glyph unicode="&#x2005;" horiz-adv-x="491" />
<glyph unicode="&#x2006;" horiz-adv-x="327" />
<glyph unicode="&#x2007;" horiz-adv-x="327" />
<glyph unicode="&#x2008;" horiz-adv-x="245" />
<glyph unicode="&#x2009;" horiz-adv-x="392" />
<glyph unicode="&#x200a;" horiz-adv-x="109" />
<glyph unicode="&#x2010;" horiz-adv-x="681" d="M90 588q0 44 32.5 76t78.5 32h280q46 0 78.5 -31.5t32.5 -76.5q0 -44 -32.5 -76.5t-78.5 -32.5h-280q-46 0 -78.5 31.5t-32.5 77.5z" />
<glyph unicode="&#x2011;" horiz-adv-x="681" d="M90 588q0 44 32.5 76t78.5 32h280q46 0 78.5 -31.5t32.5 -76.5q0 -44 -32.5 -76.5t-78.5 -32.5h-280q-46 0 -78.5 31.5t-32.5 77.5z" />
<glyph unicode="&#x2012;" horiz-adv-x="681" d="M90 588q0 44 32.5 76t78.5 32h280q46 0 78.5 -31.5t32.5 -76.5q0 -44 -32.5 -76.5t-78.5 -32.5h-280q-46 0 -78.5 31.5t-32.5 77.5z" />
<glyph unicode="&#x2013;" horiz-adv-x="1208" d="M102 588q0 44 32.5 76t78.5 32h782q46 0 78.5 -31.5t32.5 -76.5q0 -44 -32.5 -76.5t-78.5 -32.5h-782q-46 0 -78.5 31.5t-32.5 77.5z" />
<glyph unicode="&#x2014;" horiz-adv-x="1953" d="M102 588q0 44 32.5 76t78.5 32h1528q46 0 78 -31t32 -77q0 -44 -33 -76.5t-77 -32.5h-1528q-46 0 -78.5 31.5t-32.5 77.5z" />
<glyph unicode="&#x2018;" horiz-adv-x="456" d="M106 1047v94q0 134 60 235q38 64 102 64q39 0 66.5 -27t27.5 -63q0 -21 -13 -47.5t-26.5 -65t-13.5 -88.5v-102q0 -41 -29.5 -71t-72.5 -30q-41 0 -71 30t-30 71z" />
<glyph unicode="&#x2019;" horiz-adv-x="456" d="M102 1044q0 21 14 47.5t28 65t14 88.5v103q0 42 29 71t71 29q41 0 70.5 -29.5t29.5 -70.5v-95q0 -134 -57 -235q-41 -64 -102 -64q-41 0 -69 27t-28 63z" />
<glyph unicode="&#x201a;" horiz-adv-x="456" d="M82 -121q0 21 13 47.5t26.5 65t13.5 88.5v102q0 41 30 71t73 30q41 0 70.5 -30t29.5 -71v-94q0 -135 -59 -235q-38 -64 -103 -64q-39 0 -66.5 26.5t-27.5 63.5z" />
<glyph unicode="&#x201c;" horiz-adv-x="800" d="M121 1047v94q0 134 57 235q41 64 103 64q40 0 68 -27t28 -63q0 -21 -13.5 -47.5t-27.5 -65t-14 -88.5v-102q0 -42 -29.5 -71.5t-71.5 -29.5q-41 0 -70.5 30t-29.5 71zM438 1047v94q0 134 60 235q38 64 102 64q39 0 66.5 -27t27.5 -63q0 -21 -13 -47.5t-26.5 -65 t-13.5 -88.5v-102q0 -41 -29.5 -71t-72.5 -30q-41 0 -71 30t-30 71z" />
<glyph unicode="&#x201d;" horiz-adv-x="800" d="M117 1044q0 21 13.5 47.5t26.5 65t13 88.5v103q0 41 29.5 70.5t70.5 29.5q43 0 73 -29.5t30 -70.5v-95q0 -134 -60 -235q-38 -64 -102 -64q-39 0 -66.5 27t-27.5 63zM434 1044q0 21 14 47.5t27.5 65t13.5 88.5v103q0 42 29.5 71t71.5 29q41 0 70.5 -29.5t29.5 -70.5v-95 q0 -134 -57 -235q-41 -64 -103 -64q-40 0 -68 27t-28 63z" />
<glyph unicode="&#x201e;" horiz-adv-x="800" d="M117 -121q0 21 13.5 47.5t26.5 65t13 88.5v102q0 41 29.5 71t70.5 30q42 0 71.5 -29.5t29.5 -71.5v-94q0 -137 -58 -235q-38 -64 -102 -64q-41 0 -67.5 26.5t-26.5 63.5zM434 -121q0 21 14 47.5t27.5 65t13.5 88.5v102q0 42 29.5 71.5t71.5 29.5q41 0 70.5 -30t29.5 -71 v-94q0 -134 -57 -235q-41 -64 -103 -64q-41 0 -68.5 26.5t-27.5 63.5z" />
<glyph unicode="&#x2022;" horiz-adv-x="966" d="M225 717q0 106 76 182t182 76t182 -76t76 -182t-76 -182t-182 -76t-182 76t-76 182z" />
<glyph unicode="&#x2026;" horiz-adv-x="1357" d="M123 86v109q0 45 29 75.5t73 30.5q43 0 74 -31t31 -75v-109q0 -44 -30 -74t-75 -30q-42 0 -72 30t-30 74zM578 86v109q0 45 29 75.5t73 30.5q43 0 73.5 -31t30.5 -75v-109q0 -45 -29.5 -74.5t-74.5 -29.5q-42 0 -72 30t-30 74zM1028 86v109q0 45 29 75.5t73 30.5 q43 0 74 -31t31 -75v-109q0 -44 -29.5 -74t-75.5 -30q-42 0 -72 30t-30 74z" />
<glyph unicode="&#x202f;" horiz-adv-x="392" />
<glyph unicode="&#x2039;" horiz-adv-x="733" d="M90 725q0 95 94 168l250 190q35 26 75 23t66 -35q28 -32 24 -74t-36 -67l-231 -176q-19 -14 -19 -29t19 -29l231 -176q32 -25 36 -67t-24 -74q-26 -32 -66 -35t-75 23l-250 192q-94 73 -94 166z" />
<glyph unicode="&#x203a;" horiz-adv-x="733" d="M134 453q4 42 36 67l231 176q19 14 19 29t-19 29l-231 176q-32 25 -36 67t24 74q26 32 66 35t75 -23l250 -190q94 -73 94 -168q0 -93 -94 -166l-250 -192q-35 -26 -75 -23t-66 35q-28 32 -24 74z" />
<glyph unicode="&#x205f;" horiz-adv-x="491" />
<glyph unicode="&#x20ac;" horiz-adv-x="1329" d="M86 578q0 41 28.5 68.5t69.5 27.5h78v88h-78q-41 0 -69.5 27t-28.5 65q0 42 28 70t70 28h86q18 148 83 261t181 180t267 67q266 0 424 -164q32 -34 32 -77t-30.5 -74t-73.5 -31q-42 0 -90 45q-49 47 -110 69.5t-152 22.5q-133 0 -212 -80.5t-97 -218.5h323q42 0 71 -28 t29 -70q0 -38 -29.5 -65t-70.5 -27h-336v-88h336q42 0 71 -27.5t29 -68.5q0 -40 -29.5 -67.5t-70.5 -27.5h-323q18 -137 97 -216t212 -79q94 0 150.5 18.5t111.5 67.5q48 48 90 48t73 -32t31 -75q0 -39 -32 -76q-146 -159 -424 -159q-227 0 -364 136.5t-167 366.5h-86 q-41 0 -69.5 27.5t-28.5 67.5z" />
<glyph unicode="&#x2122;" horiz-adv-x="1355" d="M100 1354q0 26 17 42.5t41 16.5h362q24 0 41 -16.5t17 -42.5q0 -23 -17.5 -39.5t-40.5 -16.5h-121v-368q0 -25 -17 -41.5t-42 -16.5q-26 0 -42.5 16.5t-16.5 41.5v368h-123q-23 0 -40.5 16.5t-17.5 39.5zM571 946l64 387q7 42 33.5 64t62.5 22q31 0 57 -20.5t35 -55.5 l78 -321l82 324q7 32 33.5 52.5t58.5 20.5q36 0 61.5 -22t32.5 -64l64 -387q5 -27 -6 -48.5t-35 -27.5q-29 -7 -49 8.5t-25 43.5l-51 348l-84 -324q-8 -34 -29 -54t-53 -20q-62 0 -80 74l-84 324l-51 -348q-5 -28 -24.5 -43t-49.5 -9q-25 4 -35.5 26t-5.5 50z" />
<glyph unicode="&#xe000;" horiz-adv-x="1085" d="M0 0v1085h1085v-1085h-1085z" />
<glyph unicode="&#xfb02;" horiz-adv-x="1415" d="M61 950q0 42 29.5 70.5t71.5 28.5h61v75q0 168 90 261.5t252 93.5q111 0 193 -23q84 -24 84 -102q0 -38 -27.5 -67.5t-75.5 -29.5q-20 0 -71.5 9.5t-87.5 9.5q-140 0 -140 -162v-65h262q42 0 72.5 -28t30.5 -69t-30.5 -68.5t-72.5 -27.5h-262v-752q0 -47 -31 -79.5 t-77 -32.5q-45 0 -77 32.5t-32 79.5v752h-61q-42 0 -71.5 27.5t-29.5 66.5zM1030 102v1248q0 46 31.5 78t77.5 32q44 0 76 -32t32 -78v-1248q0 -46 -30.5 -78t-77.5 -32q-43 0 -76 32.5t-33 77.5z" />
</font>
</defs>
</svg>
